<?xml version="1.0" standalone="no"?>
<!DOCTYPE svg PUBLIC "-//W3C//DTD SVG 1.1//EN" "http://www.w3.org/Graphics/SVG/1.1/DTD/svg11.dtd" >
<svg xmlns="http://www.w3.org/2000/svg" xmlns:xlink="http://www.w3.org/1999/xlink" version="1.1">
<metadata>
Created by FontForge 20170731 at Sat Oct 22 00:50:37 2016
 By Aleksey,,,
(c)  2013 Bahij Virtual Academy. All rights reserved.
</metadata>
<defs>
<font id="BahijRoya-Regular" horiz-adv-x="0" >
  <font-face 
    font-family="Bahij Roya"
    font-weight="400"
    font-stretch="normal"
    units-per-em="2048"
    panose-1="2 4 5 3 5 2 1 2 2 3"
    ascent="1638"
    descent="-410"
    x-height="891"
    cap-height="1220"
    bbox="-295 -1231 4269 2243"
    underline-thickness="50"
    underline-position="-150"
    unicode-range="U+0020-FEFC"
  />
<missing-glyph horiz-adv-x="728" 
d="M0 0v1020h728v-1020h-728zM117 947l247 -372l248 372h-495zM655 881l-247 -371l247 -372v743zM612 73l-248 371l-247 -371h495zM73 138l247 372l-247 371v-743z" />
    <glyph glyph-name="uniFB01" unicode="fi" horiz-adv-x="1165" 
d="M246 759h-210v132h210v83q0 81 12.5 147t45 113t90.5 72.5t151 25.5q31 0 58 -4t52 -7l-7 -132q-15 5 -36.5 7.5t-42.5 2.5q-53 0 -84.5 -16t-48 -44.5t-21.5 -67t-5 -84.5v-96h236v-132h-236v-759h-164v759zM1015 1091h-185v185h185v-185zM840 891h165v-891h-165v891z
" />
    <glyph glyph-name="uniFB02" unicode="fl" horiz-adv-x="1165" 
d="M246 759h-210v132h210v83q0 81 12.5 147t45 113t90.5 72.5t151 25.5q31 0 58 -4t52 -7l-7 -132q-15 5 -36.5 7.5t-42.5 2.5q-53 0 -84.5 -16t-48 -44.5t-21.5 -67t-5 -84.5v-96h236v-132h-236v-759h-164v759zM840 1311h165v-1311h-165v1311z" />
    <glyph glyph-name="uniFC31" unicode="&#xfed3;&#xfef0;" horiz-adv-x="1658" arabic-form="isolated" 
d="M1429 440q-4 22 -12 51.5t-20.5 56t-28.5 44.5t-35 18q-16 0 -31.5 -15t-27.5 -35.5t-19.5 -42t-7.5 -34.5q0 -14 3 -27.5t11.5 -24.5t24 -18t41.5 -7q41 0 62.5 9.5t39.5 24.5zM903 0q-60 0 -99 -8t-48 -19q-2 -3 -2 -7q0 -8 19 -18q26 -14 95 -26q60 -11 106.5 -21
t75.5 -32q16 -12 25 -22.5t13.5 -23t5.5 -28t1 -35.5q0 -35 -21.5 -71.5t-59 -71t-90 -65t-114 -53.5t-130.5 -36.5t-140 -13.5q-91 0 -172.5 21.5t-143 70t-98 127.5t-36.5 193q0 34 6.5 74t18 81t27 81t34.5 75l108 -37q-28 -57 -46.5 -120t-18.5 -121q0 -75 24.5 -130
t69 -91t107 -54t137.5 -18q117 0 224 26t193 92q16 13 16 22q0 3 -1 5q-5 11 -21 14q-51 7 -90 13t-70.5 13t-57 15t-48.5 19q-13 6 -23.5 19t-17.5 28t-10.5 31t-3.5 28q0 59 29.5 101t81.5 69t123 39.5t155 12.5h160q54 0 101 10.5t82 26t55 33t22 30.5q1 12 1 21v15
q0 7 -0.5 13.5t-0.5 15.5q-38 -23 -71.5 -31t-77.5 -8q-50 0 -80.5 17t-48 41t-23.5 51t-6 47q0 19 6 51t17.5 68.5t29 74t40.5 68t51.5 49.5t62.5 19q42 0 81 -37t68.5 -96.5t47.5 -133t18 -145.5q0 -94 -23.5 -160t-69 -108t-112.5 -61t-154 -19h-309zM1341 895l-129 88
l95 131l133 -90z" />
    <glyph glyph-name="uniFC32" unicode="&#xfed3;&#xfef2;" horiz-adv-x="1658" arabic-form="isolated" 
d="M628 -868l-112 84l-80 -99l-121 86l90 113l111 -82l77 96l123 -86zM1429 440q-4 22 -12 51.5t-20.5 56t-28.5 44.5t-35 18q-16 0 -31.5 -15t-27.5 -35.5t-19.5 -42t-7.5 -34.5q0 -14 3 -27.5t11.5 -24.5t24 -18t41.5 -7q41 0 62.5 9.5t39.5 24.5zM903 0q-60 0 -99 -8
t-48 -19q-2 -3 -2 -7q0 -8 19 -18q26 -14 95 -26q60 -11 106.5 -21t75.5 -32q16 -12 25 -22.5t13.5 -23t5.5 -28t1 -35.5q0 -35 -21.5 -71.5t-59 -71t-90 -65t-114 -53.5t-130.5 -36.5t-140 -13.5q-91 0 -172.5 21.5t-143 70t-98 127.5t-36.5 193q0 34 6.5 74t18 81t27 81
t34.5 75l108 -37q-28 -57 -46.5 -120t-18.5 -121q0 -75 24.5 -130t69 -91t107 -54t137.5 -18q117 0 224 26t193 92q16 13 16 22q0 3 -1 5q-5 11 -21 14q-51 7 -90 13t-70.5 13t-57 15t-48.5 19q-13 6 -23.5 19t-17.5 28t-10.5 31t-3.5 28q0 59 29.5 101t81.5 69t123 39.5
t155 12.5h160q54 0 101 10.5t82 26t55 33t22 30.5q1 12 1 21v15q0 7 -0.5 13.5t-0.5 15.5q-38 -23 -71.5 -31t-77.5 -8q-50 0 -80.5 17t-48 41t-23.5 51t-6 47q0 19 6 51t17.5 68.5t29 74t40.5 68t51.5 49.5t62.5 19q42 0 81 -37t68.5 -96.5t47.5 -133t18 -145.5
q0 -94 -23.5 -160t-69 -108t-112.5 -61t-154 -19h-309zM1341 895l-129 88l95 131l133 -90z" />
    <glyph glyph-name="uniFC43" unicode="&#xfedf;&#xfef0;" horiz-adv-x="1504" arabic-form="isolated" 
d="M903 0q-60 0 -99 -8t-48 -19q-2 -3 -2 -7q0 -8 19 -18q26 -14 95 -26q60 -11 106.5 -21t75.5 -32q16 -12 25 -22.5t13.5 -23t5.5 -28t1 -35.5q0 -35 -21.5 -71.5t-59 -71t-90 -65t-114 -53.5t-130.5 -36.5t-140 -13.5q-91 0 -172.5 21.5t-143 70t-98 127.5t-36.5 193
q0 34 6.5 74t18 81t27 81t34.5 75l108 -37q-28 -57 -46.5 -120t-18.5 -121q0 -75 24.5 -130t69 -91t107 -54t137.5 -18q117 0 224 26t193 92q16 13 16 22q0 3 -1 5q-5 11 -21 14q-51 7 -90 13t-70.5 13t-57 15t-48.5 19q-13 6 -23.5 19t-17.5 28t-10.5 31t-3.5 28
q0 59 29.5 101t81.5 69t123 39.5t155 12.5h108q50 0 80.5 15t47 51t20.5 96q2 34 2 79q0 33 -1 72l-22 739l133 66v-834q0 -79 -7 -156.5t-33 -138.5t-78.5 -99t-143.5 -38h-239z" />
    <glyph glyph-name="uniFC44" unicode="&#xfedf;&#xfef2;" horiz-adv-x="1504" arabic-form="isolated" 
d="M628 -868l-112 84l-80 -99l-121 86l90 113l111 -82l77 96l123 -86zM903 0q-60 0 -99 -8t-48 -19q-2 -3 -2 -7q0 -8 19 -18q26 -14 95 -26q60 -11 106.5 -21t75.5 -32q16 -12 25 -22.5t13.5 -23t5.5 -28t1 -35.5q0 -35 -21.5 -71.5t-59 -71t-90 -65t-114 -53.5
t-130.5 -36.5t-140 -13.5q-91 0 -172.5 21.5t-143 70t-98 127.5t-36.5 193q0 34 6.5 74t18 81t27 81t34.5 75l108 -37q-28 -57 -46.5 -120t-18.5 -121q0 -75 24.5 -130t69 -91t107 -54t137.5 -18q117 0 224 26t193 92q16 13 16 22q0 3 -1 5q-5 11 -21 14q-51 7 -90 13
t-70.5 13t-57 15t-48.5 19q-13 6 -23.5 19t-17.5 28t-10.5 31t-3.5 28q0 59 29.5 101t81.5 69t123 39.5t155 12.5h108q50 0 80.5 15t47 51t20.5 96q2 34 2 79q0 33 -1 72l-22 739l133 66v-834q0 -79 -7 -156.5t-33 -138.5t-78.5 -99t-143.5 -38h-239z" />
    <glyph glyph-name="uniFC64" unicode="&#xfe8c;&#xfeae;" horiz-adv-x="1361" arabic-form="final" 
d="M803 573v68l98 41q-14 13 -23.5 24t-15 22t-8 23t-2.5 27q0 31 14 58.5t36 48t48 32t50 11.5q31 0 59 -8t57 -31l-22 -55q-29 9 -53.5 11.5t-42.5 2.5q-12 0 -26.5 -4t-27 -11t-21.5 -17t-9 -21q0 -31 33 -50.5t85 -19.5q6 0 22 4t37.5 10t46.5 13t48 14v-94zM770 0
q-23 0 -51 3q-33 3 -66 19l-17 11q0 -68 -28.5 -132.5t-74.5 -122.5t-104 -108.5t-116.5 -92t-113 -73t-92.5 -49.5l-104 80q55 30 114.5 67.5t117 79t108.5 85.5t90 87t61.5 84t22.5 76q0 48 -23.5 105t-68.5 119l104 106q21 -29 36 -52.5t35 -48.5q13 -17 28 -32
q27 -27 62.5 -45t84.5 -18h81q26 0 58 6.5t59.5 23t46 44.5t18.5 71v61l103 29q1 -78 14.5 -124.5t38 -71t59 -32t76.5 -7.5h62v-148h-86q-31 0 -64 4t-64 16.5t-57.5 36.5t-44.5 64q-15 -32 -40 -54.5t-54.5 -37.5t-60 -22t-56.5 -7h-94z" />
    <glyph glyph-name="uniFC67" unicode="&#xfe8c;&#xfee6;" horiz-adv-x="1721" arabic-form="final" 
d="M558 352l-123 82l92 125l125 -86zM1163 573v68l98 41q-14 13 -23.5 24t-15 22t-8 23t-2.5 27q0 31 14 58.5t36 48t48 32t50 11.5q31 0 59 -8t57 -31l-22 -55q-29 9 -53.5 11.5t-42.5 2.5q-12 0 -26.5 -4t-27 -11t-21.5 -17t-9 -21q0 -31 33 -50.5t85 -19.5q6 0 22 4
t37.5 10t46.5 13t48 14v-94zM1121 0q-31 1 -53 9q-27 9 -55 38q1 -23 1 -45q0 -98 -29 -178q-36 -99 -104.5 -167t-163.5 -104t-206 -36q-103 0 -180.5 32.5t-130 88t-79 129.5t-26.5 157q0 28 6.5 65t17.5 77t27 79t35 72l95 -35q-13 -21 -24.5 -51t-20.5 -62t-14 -63
t-5 -53q0 -68 19 -123t58 -93.5t100 -59.5t145 -21q88 0 157 25.5t117 68t73 97.5t25 114q0 75 -26 151t-64 138l111 94q18 -36 37 -72t43 -65.5t51 -44.5q24 -14 58 -14h100q26 0 58 6.5t59.5 23t46 44.5t18.5 71v61l103 29q1 -78 14.5 -124.5t38 -71t59 -32t76.5 -7.5h62
v-148h-86q-31 0 -64 4t-64 16.5t-57.5 36.5t-44.5 64q-15 -32 -40 -54.5t-54.5 -37.5t-60 -22t-56.5 -7h-103z" />
    <glyph glyph-name="uniFC6A" unicode="&#xfe92;&#xfeae;" horiz-adv-x="1351" arabic-form="final" 
d="M1032 -410l-131 89l96 131l131 -91zM770 0q-23 0 -51 3q-33 3 -66 19l-17 11q0 -68 -28.5 -132.5t-74.5 -122.5t-104 -108.5t-116.5 -92t-113 -73t-92.5 -49.5l-104 80q55 30 114.5 67.5t117 79t108.5 85.5t90 87t61.5 84t22.5 76q0 48 -23.5 105t-68.5 119l104 106
q21 -29 36 -52.5t35 -48.5q13 -17 28 -32q27 -27 62.5 -45t84.5 -18h71q26 0 58 6.5t59.5 23t46 44.5t18.5 71v61l103 29q1 -78 14.5 -124.5t38 -71t59 -32t76.5 -7.5h62v-148h-86q-31 0 -64 4t-64 16.5t-57.5 36.5t-44.5 64q-15 -32 -40 -54.5t-54.5 -37.5t-60 -22
t-56.5 -7h-84z" />
    <glyph glyph-name="uniFC70" unicode="&#xfe98;&#xfeae;" horiz-adv-x="1381" arabic-form="final" 
d="M770 0q-23 0 -51 3q-33 3 -66 19l-17 11q0 -68 -28.5 -132.5t-74.5 -122.5t-104 -108.5t-116.5 -92t-113 -73t-92.5 -49.5l-104 80q55 30 114.5 67.5t117 79t108.5 85.5t90 87t61.5 84t22.5 76q0 48 -23.5 105t-68.5 119l104 106q21 -29 36 -52.5t35 -48.5q13 -17 28 -32
q27 -27 62.5 -45t84.5 -18h101q26 0 58 6.5t59.5 23t46 44.5t18.5 71v61l103 29q1 -78 14.5 -124.5t38 -71t59 -32t76.5 -7.5h62v-148h-86q-31 0 -64 4t-64 16.5t-57.5 36.5t-44.5 64q-15 -32 -40 -54.5t-54.5 -37.5t-60 -22t-56.5 -7h-114zM1103 617l-113 84l-82 -98
l-121 86l92 112l109 -82l80 97l123 -86z" />
    <glyph glyph-name="uniFC86" unicode="&#xfee0;&#xfef0;" horiz-adv-x="1579" arabic-form="final" 
d="M903 0q-60 0 -99 -8t-48 -19q-2 -3 -2 -7q0 -8 19 -18q26 -14 95 -26q60 -11 106.5 -21t75.5 -32q16 -12 25 -22.5t13.5 -23t5.5 -28t1 -35.5q0 -35 -21.5 -71.5t-59 -71t-90 -65t-114 -53.5t-130.5 -36.5t-140 -13.5q-91 0 -172.5 21.5t-143 70t-98 127.5t-36.5 193
q0 34 6.5 74t18 81t27 81t34.5 75l108 -37q-28 -57 -46.5 -120t-18.5 -121q0 -75 24.5 -130t69 -91t107 -54t137.5 -18q117 0 224 26t193 92q16 13 16 22q0 3 -1 5q-5 11 -21 14q-51 7 -90 13t-70.5 13t-57 15t-48.5 19q-13 6 -23.5 19t-17.5 28t-10.5 31t-3.5 28
q0 59 29.5 101t81.5 69t123 39.5t155 12.5h77q52 0 88.5 12t59 42t32.5 81q7 38 7 92q0 17 -1 35l-22 790l131 66v-807q0 -93 13.5 -153t36 -95.5t51 -49t59.5 -13.5h41v-148h-64q-24 0 -50 6.5t-51.5 22t-48 41t-38.5 63.5q-23 -39 -51 -64.5t-56.5 -41t-56 -21.5t-51.5 -6
h-239z" />
    <glyph glyph-name="uniFC87" unicode="&#xfee0;&#xfef2;" horiz-adv-x="1579" arabic-form="final" 
d="M628 -868l-112 84l-80 -99l-121 86l90 113l111 -82l77 96l123 -86zM903 0q-60 0 -99 -8t-48 -19q-2 -3 -2 -7q0 -8 19 -18q26 -14 95 -26q60 -11 106.5 -21t75.5 -32q16 -12 25 -22.5t13.5 -23t5.5 -28t1 -35.5q0 -35 -21.5 -71.5t-59 -71t-90 -65t-114 -53.5
t-130.5 -36.5t-140 -13.5q-91 0 -172.5 21.5t-143 70t-98 127.5t-36.5 193q0 34 6.5 74t18 81t27 81t34.5 75l108 -37q-28 -57 -46.5 -120t-18.5 -121q0 -75 24.5 -130t69 -91t107 -54t137.5 -18q117 0 224 26t193 92q16 13 16 22q0 3 -1 5q-5 11 -21 14q-51 7 -90 13
t-70.5 13t-57 15t-48.5 19q-13 6 -23.5 19t-17.5 28t-10.5 31t-3.5 28q0 59 29.5 101t81.5 69t123 39.5t155 12.5h77q52 0 88.5 12t59 42t32.5 81q7 38 7 92q0 17 -1 35l-22 790l131 66v-807q0 -93 13.5 -153t36 -95.5t51 -49t59.5 -13.5h41v-148h-64q-24 0 -50 6.5
t-51.5 22t-48 41t-38.5 63.5q-23 -39 -51 -64.5t-56.5 -41t-56 -21.5t-51.5 -6h-239z" />
    <glyph glyph-name="uniFCCC" unicode="&#xfedf;&#xfee4;" horiz-adv-x="1234" arabic-form="initial" 
d="M519 156q-5 18 -16.5 46t-27 54.5t-32 46t-30.5 19.5q-15 0 -31 -15t-30 -37.5t-26 -47.5t-20 -46q31 -31 62.5 -49.5t62.5 -32.5q41 -20 65 -20q11 0 18 4q13 7 13 30q0 19 -8 48zM806 0q-47 0 -93 21.5t-91 66.5q-6 -31 -13.5 -61.5t-18.5 -54.5t-26 -38
q-14 -12 -32 -12h-5q-31 4 -66.5 13.5t-75 26.5t-82 43.5t-87.5 64.5q-21 -18 -40.5 -31.5t-39 -22t-40.5 -12.5t-46 -4h-80v148h56q34 0 62 3t51.5 12t43 26t37.5 45q15 24 37.5 63.5t48.5 76.5t55.5 64t59.5 27t56.5 -24t53 -60t56 -77t65.5 -75q23 -21 44 -36.5t42 -25.5
t44 -14.5t50 -4.5h42q50 0 80.5 15t47 51t20.5 96q2 34 2 79q0 33 -1 72l-22 739l133 66v-834q0 -79 -7 -156.5t-33 -138.5t-78.5 -99t-143.5 -38h-66z" />
    <glyph glyph-name="uniFCFB" unicode="&#xfeb3;&#xfef0;" horiz-adv-x="2206" arabic-form="isolated" 
d="M903 0q-60 0 -99 -8t-48 -19q-2 -3 -2 -7q0 -8 19 -18q26 -14 95 -26q60 -11 106.5 -21t75.5 -32q16 -12 25 -22.5t13.5 -23t5.5 -28t1 -35.5q0 -35 -21.5 -71.5t-59 -71t-90 -65t-114 -53.5t-130.5 -36.5t-140 -13.5q-91 0 -172.5 21.5t-143 70t-98 127.5t-36.5 193
q0 34 6.5 74t18 81t27 81t34.5 75l108 -37q-28 -57 -46.5 -120t-18.5 -121q0 -75 24.5 -130t69 -91t107 -54t137.5 -18q117 0 224 26t193 92q16 13 16 22q0 3 -1 5q-5 11 -21 14q-51 7 -90 13t-70.5 13t-57 15t-48.5 19q-13 6 -23.5 19t-17.5 28t-10.5 31t-3.5 28
q0 59 29.5 101t81.5 69t123 39.5t155 12.5h79q36 0 66.5 6t53 23.5t35.5 49.5t13 84v25l96 35v-27q0 -42 6 -78t20.5 -62.5t39.5 -41t63 -14.5q28 0 55 5.5t48 22.5t34 49t13 86v25l98 35v-27q0 -42 7.5 -78t24.5 -61.5t46 -40t72 -14.5q29 0 49 8t33 21t18.5 30.5t5.5 36.5
q0 15 -5.5 33.5t-14.5 36.5t-20 34.5t-21 28.5l96 108q18 -21 32 -51t23.5 -61.5t15 -61t5.5 -51.5q0 -57 -16.5 -105t-46.5 -83t-71 -54.5t-90 -19.5q-72 0 -119 25.5t-73 76.5q-43 -59 -93 -80.5t-108 -21.5q-22 0 -48 5t-50.5 17t-44.5 31.5t-31 48.5
q-17 -30 -39.5 -49.5t-48 -31t-52 -16.5t-50.5 -5h-239z" />
    <glyph glyph-name="uniFCFC" unicode="&#xfeb3;&#xfef2;" horiz-adv-x="2206" arabic-form="isolated" 
d="M628 -868l-112 84l-80 -99l-121 86l90 113l111 -82l77 96l123 -86zM903 0q-60 0 -99 -8t-48 -19q-2 -3 -2 -7q0 -8 19 -18q26 -14 95 -26q60 -11 106.5 -21t75.5 -32q16 -12 25 -22.5t13.5 -23t5.5 -28t1 -35.5q0 -35 -21.5 -71.5t-59 -71t-90 -65t-114 -53.5
t-130.5 -36.5t-140 -13.5q-91 0 -172.5 21.5t-143 70t-98 127.5t-36.5 193q0 34 6.5 74t18 81t27 81t34.5 75l108 -37q-28 -57 -46.5 -120t-18.5 -121q0 -75 24.5 -130t69 -91t107 -54t137.5 -18q117 0 224 26t193 92q16 13 16 22q0 3 -1 5q-5 11 -21 14q-51 7 -90 13
t-70.5 13t-57 15t-48.5 19q-13 6 -23.5 19t-17.5 28t-10.5 31t-3.5 28q0 59 29.5 101t81.5 69t123 39.5t155 12.5h79q36 0 66.5 6t53 23.5t35.5 49.5t13 84v25l96 35v-27q0 -42 6 -78t20.5 -62.5t39.5 -41t63 -14.5q28 0 55 5.5t48 22.5t34 49t13 86v25l98 35v-27
q0 -42 7.5 -78t24.5 -61.5t46 -40t72 -14.5q29 0 49 8t33 21t18.5 30.5t5.5 36.5q0 15 -5.5 33.5t-14.5 36.5t-20 34.5t-21 28.5l96 108q18 -21 32 -51t23.5 -61.5t15 -61t5.5 -51.5q0 -57 -16.5 -105t-46.5 -83t-71 -54.5t-90 -19.5q-72 0 -119 25.5t-73 76.5
q-43 -59 -93 -80.5t-108 -21.5q-22 0 -48 5t-50.5 17t-44.5 31.5t-31 48.5q-17 -30 -39.5 -49.5t-48 -31t-52 -16.5t-50.5 -5h-239z" />
    <glyph glyph-name="uniFCFD" unicode="&#xfeb7;&#xfef0;" horiz-adv-x="2206" arabic-form="isolated" 
d="M903 0q-60 0 -99 -8t-48 -19q-2 -3 -2 -7q0 -8 19 -18q26 -14 95 -26q60 -11 106.5 -21t75.5 -32q16 -12 25 -22.5t13.5 -23t5.5 -28t1 -35.5q0 -35 -21.5 -71.5t-59 -71t-90 -65t-114 -53.5t-130.5 -36.5t-140 -13.5q-91 0 -172.5 21.5t-143 70t-98 127.5t-36.5 193
q0 34 6.5 74t18 81t27 81t34.5 75l108 -37q-28 -57 -46.5 -120t-18.5 -121q0 -75 24.5 -130t69 -91t107 -54t137.5 -18q117 0 224 26t193 92q16 13 16 22q0 3 -1 5q-5 11 -21 14q-51 7 -90 13t-70.5 13t-57 15t-48.5 19q-13 6 -23.5 19t-17.5 28t-10.5 31t-3.5 28
q0 59 29.5 101t81.5 69t123 39.5t155 12.5h79q36 0 66.5 6t53 23.5t35.5 49.5t13 84v25l96 35v-27q0 -42 6 -78t20.5 -62.5t39.5 -41t63 -14.5q28 0 55 5.5t48 22.5t34 49t13 86v25l98 35v-27q0 -42 7.5 -78t24.5 -61.5t46 -40t72 -14.5q29 0 49 8t33 21t18.5 30.5t5.5 36.5
q0 15 -5.5 33.5t-14.5 36.5t-20 34.5t-21 28.5l96 108q18 -21 32 -51t23.5 -61.5t15 -61t5.5 -51.5q0 -57 -16.5 -105t-46.5 -83t-71 -54.5t-90 -19.5q-72 0 -119 25.5t-73 76.5q-43 -59 -93 -80.5t-108 -21.5q-22 0 -48 5t-50.5 17t-44.5 31.5t-31 48.5
q-17 -30 -39.5 -49.5t-48 -31t-52 -16.5t-50.5 -5h-239zM1830 692l-111 82l-76 -94l-108 78l80 100l106 -78l74 92l113 -77zM1705 877l-109 79l74 95l109 -78z" />
    <glyph glyph-name="uniFCFE" unicode="&#xfeb7;&#xfef2;" horiz-adv-x="2206" arabic-form="isolated" 
d="M628 -868l-112 84l-80 -99l-121 86l90 113l111 -82l77 96l123 -86zM903 0q-60 0 -99 -8t-48 -19q-2 -3 -2 -7q0 -8 19 -18q26 -14 95 -26q60 -11 106.5 -21t75.5 -32q16 -12 25 -22.5t13.5 -23t5.5 -28t1 -35.5q0 -35 -21.5 -71.5t-59 -71t-90 -65t-114 -53.5
t-130.5 -36.5t-140 -13.5q-91 0 -172.5 21.5t-143 70t-98 127.5t-36.5 193q0 34 6.5 74t18 81t27 81t34.5 75l108 -37q-28 -57 -46.5 -120t-18.5 -121q0 -75 24.5 -130t69 -91t107 -54t137.5 -18q117 0 224 26t193 92q16 13 16 22q0 3 -1 5q-5 11 -21 14q-51 7 -90 13
t-70.5 13t-57 15t-48.5 19q-13 6 -23.5 19t-17.5 28t-10.5 31t-3.5 28q0 59 29.5 101t81.5 69t123 39.5t155 12.5h79q36 0 66.5 6t53 23.5t35.5 49.5t13 84v25l96 35v-27q0 -42 6 -78t20.5 -62.5t39.5 -41t63 -14.5q28 0 55 5.5t48 22.5t34 49t13 86v25l98 35v-27
q0 -42 7.5 -78t24.5 -61.5t46 -40t72 -14.5q29 0 49 8t33 21t18.5 30.5t5.5 36.5q0 15 -5.5 33.5t-14.5 36.5t-20 34.5t-21 28.5l96 108q18 -21 32 -51t23.5 -61.5t15 -61t5.5 -51.5q0 -57 -16.5 -105t-46.5 -83t-71 -54.5t-90 -19.5q-72 0 -119 25.5t-73 76.5
q-43 -59 -93 -80.5t-108 -21.5q-22 0 -48 5t-50.5 17t-44.5 31.5t-31 48.5q-17 -30 -39.5 -49.5t-48 -31t-52 -16.5t-50.5 -5h-239zM1830 692l-111 82l-76 -94l-108 78l80 100l106 -78l74 92l113 -77zM1705 877l-109 79l74 95l109 -78z" />
    <glyph glyph-name="uniFD05" unicode="&#xfebb;&#xfef0;" horiz-adv-x="2453" arabic-form="isolated" 
d="M2246 324q0 48 -41.5 80t-112.5 32q-45 0 -98 -28t-108 -71t-106.5 -93.5t-93.5 -95.5h160q115 0 192 18t123 45t65.5 57.5t19.5 55.5zM903 0q-60 0 -99 -8t-48 -19q-2 -3 -2 -7q0 -8 19 -18q26 -14 95 -26q60 -11 106.5 -21t75.5 -32q16 -12 25 -22.5t13.5 -23t5.5 -28
t1 -35.5q0 -35 -21.5 -71.5t-59 -71t-90 -65t-114 -53.5t-130.5 -36.5t-140 -13.5q-91 0 -172.5 21.5t-143 70t-98 127.5t-36.5 193q0 34 6.5 74t18 81t27 81t34.5 75l108 -37q-28 -57 -46.5 -120t-18.5 -121q0 -75 24.5 -130t69 -91t107 -54t137.5 -18q117 0 224 26t193 92
q16 13 16 22q0 3 -1 5q-5 11 -21 14q-51 7 -90 13t-70.5 13t-57 15t-48.5 19q-13 6 -23.5 19t-17.5 28t-10.5 31t-3.5 28q0 59 29.5 101t81.5 69t123 39.5t155 12.5h87q49 0 78 13t44 34.5t19.5 49t4.5 56.5v41l114 39v-25q0 -59 7.5 -99t23 -64t38 -34.5t52.5 -10.5
q35 0 59.5 13.5t45 35.5t41 50.5t47.5 59.5q18 21 45.5 49.5t62.5 59.5t76 61t85.5 54t91 38.5t93.5 14.5q51 0 92 -19t70 -49t44.5 -67t15.5 -74q0 -72 -29 -139.5t-93 -120t-167 -84t-250 -31.5h-270q-56 0 -94.5 5t-66.5 16t-47.5 30t-37.5 47q-32 -49 -74.5 -73.5
t-99.5 -24.5h-241z" />
    <glyph glyph-name="uniFD06" unicode="&#xfebb;&#xfef2;" horiz-adv-x="2453" arabic-form="isolated" 
d="M628 -868l-112 84l-80 -99l-121 86l90 113l111 -82l77 96l123 -86zM2246 324q0 48 -41.5 80t-112.5 32q-45 0 -98 -28t-108 -71t-106.5 -93.5t-93.5 -95.5h160q115 0 192 18t123 45t65.5 57.5t19.5 55.5zM903 0q-60 0 -99 -8t-48 -19q-2 -3 -2 -7q0 -8 19 -18
q26 -14 95 -26q60 -11 106.5 -21t75.5 -32q16 -12 25 -22.5t13.5 -23t5.5 -28t1 -35.5q0 -35 -21.5 -71.5t-59 -71t-90 -65t-114 -53.5t-130.5 -36.5t-140 -13.5q-91 0 -172.5 21.5t-143 70t-98 127.5t-36.5 193q0 34 6.5 74t18 81t27 81t34.5 75l108 -37
q-28 -57 -46.5 -120t-18.5 -121q0 -75 24.5 -130t69 -91t107 -54t137.5 -18q117 0 224 26t193 92q16 13 16 22q0 3 -1 5q-5 11 -21 14q-51 7 -90 13t-70.5 13t-57 15t-48.5 19q-13 6 -23.5 19t-17.5 28t-10.5 31t-3.5 28q0 59 29.5 101t81.5 69t123 39.5t155 12.5h87
q49 0 78 13t44 34.5t19.5 49t4.5 56.5v41l114 39v-25q0 -59 7.5 -99t23 -64t38 -34.5t52.5 -10.5q35 0 59.5 13.5t45 35.5t41 50.5t47.5 59.5q18 21 45.5 49.5t62.5 59.5t76 61t85.5 54t91 38.5t93.5 14.5q51 0 92 -19t70 -49t44.5 -67t15.5 -74q0 -72 -29 -139.5t-93 -120
t-167 -84t-250 -31.5h-270q-56 0 -94.5 5t-66.5 16t-47.5 30t-37.5 47q-32 -49 -74.5 -73.5t-99.5 -24.5h-241z" />
    <glyph glyph-name="uniFD07" unicode="&#xfebf;&#xfef0;" horiz-adv-x="2453" arabic-form="isolated" 
d="M2246 324q0 48 -41.5 80t-112.5 32q-45 0 -98 -28t-108 -71t-106.5 -93.5t-93.5 -95.5h160q115 0 192 18t123 45t65.5 57.5t19.5 55.5zM903 0q-60 0 -99 -8t-48 -19q-2 -3 -2 -7q0 -8 19 -18q26 -14 95 -26q60 -11 106.5 -21t75.5 -32q16 -12 25 -22.5t13.5 -23t5.5 -28
t1 -35.5q0 -35 -21.5 -71.5t-59 -71t-90 -65t-114 -53.5t-130.5 -36.5t-140 -13.5q-91 0 -172.5 21.5t-143 70t-98 127.5t-36.5 193q0 34 6.5 74t18 81t27 81t34.5 75l108 -37q-28 -57 -46.5 -120t-18.5 -121q0 -75 24.5 -130t69 -91t107 -54t137.5 -18q117 0 224 26t193 92
q16 13 16 22q0 3 -1 5q-5 11 -21 14q-51 7 -90 13t-70.5 13t-57 15t-48.5 19q-13 6 -23.5 19t-17.5 28t-10.5 31t-3.5 28q0 59 29.5 101t81.5 69t123 39.5t155 12.5h87q49 0 78 13t44 34.5t19.5 49t4.5 56.5v41l114 39v-25q0 -59 7.5 -99t23 -64t38 -34.5t52.5 -10.5
q35 0 59.5 13.5t45 35.5t41 50.5t47.5 59.5q18 21 45.5 49.5t62.5 59.5t76 61t85.5 54t91 38.5t93.5 14.5q51 0 92 -19t70 -49t44.5 -67t15.5 -74q0 -72 -29 -139.5t-93 -120t-167 -84t-250 -31.5h-270q-56 0 -94.5 5t-66.5 16t-47.5 30t-37.5 47q-32 -49 -74.5 -73.5
t-99.5 -24.5h-241zM1945 801l-132 86l97 131l131 -90z" />
    <glyph glyph-name="uniFD08" unicode="&#xfebf;&#xfef2;" horiz-adv-x="2453" arabic-form="isolated" 
d="M628 -868l-112 84l-80 -99l-121 86l90 113l111 -82l77 96l123 -86zM2246 324q0 48 -41.5 80t-112.5 32q-45 0 -98 -28t-108 -71t-106.5 -93.5t-93.5 -95.5h160q115 0 192 18t123 45t65.5 57.5t19.5 55.5zM903 0q-60 0 -99 -8t-48 -19q-2 -3 -2 -7q0 -8 19 -18
q26 -14 95 -26q60 -11 106.5 -21t75.5 -32q16 -12 25 -22.5t13.5 -23t5.5 -28t1 -35.5q0 -35 -21.5 -71.5t-59 -71t-90 -65t-114 -53.5t-130.5 -36.5t-140 -13.5q-91 0 -172.5 21.5t-143 70t-98 127.5t-36.5 193q0 34 6.5 74t18 81t27 81t34.5 75l108 -37
q-28 -57 -46.5 -120t-18.5 -121q0 -75 24.5 -130t69 -91t107 -54t137.5 -18q117 0 224 26t193 92q16 13 16 22q0 3 -1 5q-5 11 -21 14q-51 7 -90 13t-70.5 13t-57 15t-48.5 19q-13 6 -23.5 19t-17.5 28t-10.5 31t-3.5 28q0 59 29.5 101t81.5 69t123 39.5t155 12.5h87
q49 0 78 13t44 34.5t19.5 49t4.5 56.5v41l114 39v-25q0 -59 7.5 -99t23 -64t38 -34.5t52.5 -10.5q35 0 59.5 13.5t45 35.5t41 50.5t47.5 59.5q18 21 45.5 49.5t62.5 59.5t76 61t85.5 54t91 38.5t93.5 14.5q51 0 92 -19t70 -49t44.5 -67t15.5 -74q0 -72 -29 -139.5t-93 -120
t-167 -84t-250 -31.5h-270q-56 0 -94.5 5t-66.5 16t-47.5 30t-37.5 47q-32 -49 -74.5 -73.5t-99.5 -24.5h-241zM1945 801l-132 86l97 131l131 -90z" />
    <glyph glyph-name="uniFD0D" unicode="&#xfeb7;&#xfeae;" horiz-adv-x="1906" arabic-form="isolated" 
d="M777 0q-25 0 -58 3t-66 19l-17 11q0 -68 -28.5 -132.5t-74.5 -122.5t-104 -108.5t-116.5 -92t-113 -73t-92.5 -49.5l-104 80q55 30 114.5 67.5t117 79t108.5 85.5t90 87t61.5 84t22.5 76q0 48 -23.5 105t-68.5 119l104 106q21 -29 36 -52.5t35 -48.5q13 -17 28 -32
q27 -27 62.5 -45t84.5 -18h40q36 0 66.5 6t53 23.5t35.5 49.5t13 84v25l96 35v-27q0 -42 6 -78t20.5 -62.5t39.5 -41t63 -14.5q28 0 55 5.5t48 22.5t34 49t13 86v25l98 35v-27q0 -42 7.5 -78t24.5 -61.5t46 -40t72 -14.5q29 0 49 8t33 21t18.5 30.5t5.5 36.5q0 15 -5.5 33.5
t-14.5 36.5t-20 34.5t-21 28.5l96 108q18 -21 32 -51t23.5 -61.5t15 -61t5.5 -51.5q0 -57 -16.5 -105t-46.5 -83t-71 -54.5t-90 -19.5q-72 0 -119 25.5t-73 76.5q-43 -59 -93 -80.5t-108 -21.5q-22 0 -48 5t-50.5 17t-44.5 31.5t-31 48.5q-17 -30 -39.5 -49.5t-48 -31
t-52 -16.5t-50.5 -5h-65zM1530 692l-111 82l-76 -94l-108 78l80 100l106 -78l74 92l113 -77zM1405 877l-109 79l74 95l109 -78z" />
    <glyph glyph-name="uniFD0E" unicode="&#xfeb3;&#xfeae;" horiz-adv-x="1906" arabic-form="isolated" 
d="M777 0q-25 0 -58 3t-66 19l-17 11q0 -68 -28.5 -132.5t-74.5 -122.5t-104 -108.5t-116.5 -92t-113 -73t-92.5 -49.5l-104 80q55 30 114.5 67.5t117 79t108.5 85.5t90 87t61.5 84t22.5 76q0 48 -23.5 105t-68.5 119l104 106q21 -29 36 -52.5t35 -48.5q13 -17 28 -32
q27 -27 62.5 -45t84.5 -18h40q36 0 66.5 6t53 23.5t35.5 49.5t13 84v25l96 35v-27q0 -42 6 -78t20.5 -62.5t39.5 -41t63 -14.5q28 0 55 5.5t48 22.5t34 49t13 86v25l98 35v-27q0 -42 7.5 -78t24.5 -61.5t46 -40t72 -14.5q29 0 49 8t33 21t18.5 30.5t5.5 36.5q0 15 -5.5 33.5
t-14.5 36.5t-20 34.5t-21 28.5l96 108q18 -21 32 -51t23.5 -61.5t15 -61t5.5 -51.5q0 -57 -16.5 -105t-46.5 -83t-71 -54.5t-90 -19.5q-72 0 -119 25.5t-73 76.5q-43 -59 -93 -80.5t-108 -21.5q-22 0 -48 5t-50.5 17t-44.5 31.5t-31 48.5q-17 -30 -39.5 -49.5t-48 -31
t-52 -16.5t-50.5 -5h-65z" />
    <glyph glyph-name="uniFD0F" unicode="&#xfebb;&#xfeae;" horiz-adv-x="2153" arabic-form="isolated" 
d="M1946 324q0 48 -41.5 80t-112.5 32q-45 0 -98 -28t-108 -71t-106.5 -93.5t-93.5 -95.5h160q115 0 192 18t123 45t65.5 57.5t19.5 55.5zM777 0q-25 0 -58 3t-66 19l-17 11q0 -68 -28.5 -132.5t-74.5 -122.5t-104 -108.5t-116.5 -92t-113 -73t-92.5 -49.5l-104 80
q55 30 114.5 67.5t117 79t108.5 85.5t90 87t61.5 84t22.5 76q0 48 -23.5 105t-68.5 119l104 106q21 -29 36 -52.5t35 -48.5q13 -17 28 -32q27 -27 62.5 -45t84.5 -18h48q49 0 78 13t44 34.5t19.5 49t4.5 56.5v41l114 39v-25q0 -59 7.5 -99t23 -64t38 -34.5t52.5 -10.5
q35 0 59.5 13.5t45 35.5t41 50.5t47.5 59.5q18 21 45.5 49.5t62.5 59.5t76 61t85.5 54t91 38.5t93.5 14.5q51 0 92 -19t70 -49t44.5 -67t15.5 -74q0 -72 -29 -139.5t-93 -120t-167 -84t-250 -31.5h-270q-56 0 -94.5 5t-66.5 16t-47.5 30t-37.5 47q-32 -49 -74.5 -73.5
t-99.5 -24.5h-67z" />
    <glyph glyph-name="uniFD10" unicode="&#xfebf;&#xfeae;" horiz-adv-x="2153" arabic-form="isolated" 
d="M1946 324q0 48 -41.5 80t-112.5 32q-45 0 -98 -28t-108 -71t-106.5 -93.5t-93.5 -95.5h160q115 0 192 18t123 45t65.5 57.5t19.5 55.5zM777 0q-25 0 -58 3t-66 19l-17 11q0 -68 -28.5 -132.5t-74.5 -122.5t-104 -108.5t-116.5 -92t-113 -73t-92.5 -49.5l-104 80
q55 30 114.5 67.5t117 79t108.5 85.5t90 87t61.5 84t22.5 76q0 48 -23.5 105t-68.5 119l104 106q21 -29 36 -52.5t35 -48.5q13 -17 28 -32q27 -27 62.5 -45t84.5 -18h48q49 0 78 13t44 34.5t19.5 49t4.5 56.5v41l114 39v-25q0 -59 7.5 -99t23 -64t38 -34.5t52.5 -10.5
q35 0 59.5 13.5t45 35.5t41 50.5t47.5 59.5q18 21 45.5 49.5t62.5 59.5t76 61t85.5 54t91 38.5t93.5 14.5q51 0 92 -19t70 -49t44.5 -67t15.5 -74q0 -72 -29 -139.5t-93 -120t-167 -84t-250 -31.5h-270q-56 0 -94.5 5t-66.5 16t-47.5 30t-37.5 47q-32 -49 -74.5 -73.5
t-99.5 -24.5h-67zM1645 801l-132 86l97 131l131 -90z" />
    <glyph glyph-name="uniFD17" unicode="&#xfeb4;&#xfef0;" horiz-adv-x="2324" arabic-form="final" 
d="M903 0q-60 0 -99 -8t-48 -19q-2 -3 -2 -7q0 -8 19 -18q26 -14 95 -26q60 -11 106.5 -21t75.5 -32q16 -12 25 -22.5t13.5 -23t5.5 -28t1 -35.5q0 -35 -21.5 -71.5t-59 -71t-90 -65t-114 -53.5t-130.5 -36.5t-140 -13.5q-91 0 -172.5 21.5t-143 70t-98 127.5t-36.5 193
q0 34 6.5 74t18 81t27 81t34.5 75l108 -37q-28 -57 -46.5 -120t-18.5 -121q0 -75 24.5 -130t69 -91t107 -54t137.5 -18q117 0 224 26t193 92q16 13 16 22q0 3 -1 5q-5 11 -21 14q-51 7 -90 13t-70.5 13t-57 15t-48.5 19q-13 6 -23.5 19t-17.5 28t-10.5 31t-3.5 28
q0 59 29.5 101t81.5 69t123 39.5t155 12.5h81q35 0 65.5 6t53 23.5t35 49.5t12.5 84v25l98 35v-27q0 -97 33 -146.5t96 -49.5q32 0 61 5t51 22t35 49.5t13 86.5v25l98 35v-27q0 -42 6 -78t20.5 -62.5t39.5 -41t63 -14.5q70 0 111 36.5t41 126.5v25l98 39v-31q0 -45 5.5 -81
t21.5 -61.5t44.5 -39.5t74.5 -14h61v-148h-63q-66 0 -117 22t-76 78q-40 -57 -92 -78.5t-115 -21.5q-62 0 -105.5 27t-66.5 73q-76 -100 -213 -100q-24 0 -49.5 6t-49 18t-43.5 31t-32 45q-17 -28 -39 -47t-46.5 -31t-51 -17t-53.5 -5h-239z" />
    <glyph glyph-name="uniFD18" unicode="&#xfeb4;&#xfef2;" horiz-adv-x="2324" arabic-form="final" 
d="M628 -868l-112 84l-80 -99l-121 86l90 113l111 -82l77 96l123 -86zM903 0q-60 0 -99 -8t-48 -19q-2 -3 -2 -7q0 -8 19 -18q26 -14 95 -26q60 -11 106.5 -21t75.5 -32q16 -12 25 -22.5t13.5 -23t5.5 -28t1 -35.5q0 -35 -21.5 -71.5t-59 -71t-90 -65t-114 -53.5
t-130.5 -36.5t-140 -13.5q-91 0 -172.5 21.5t-143 70t-98 127.5t-36.5 193q0 34 6.5 74t18 81t27 81t34.5 75l108 -37q-28 -57 -46.5 -120t-18.5 -121q0 -75 24.5 -130t69 -91t107 -54t137.5 -18q117 0 224 26t193 92q16 13 16 22q0 3 -1 5q-5 11 -21 14q-51 7 -90 13
t-70.5 13t-57 15t-48.5 19q-13 6 -23.5 19t-17.5 28t-10.5 31t-3.5 28q0 59 29.5 101t81.5 69t123 39.5t155 12.5h81q35 0 65.5 6t53 23.5t35 49.5t12.5 84v25l98 35v-27q0 -97 33 -146.5t96 -49.5q32 0 61 5t51 22t35 49.5t13 86.5v25l98 35v-27q0 -42 6 -78t20.5 -62.5
t39.5 -41t63 -14.5q70 0 111 36.5t41 126.5v25l98 39v-31q0 -45 5.5 -81t21.5 -61.5t44.5 -39.5t74.5 -14h61v-148h-63q-66 0 -117 22t-76 78q-40 -57 -92 -78.5t-115 -21.5q-62 0 -105.5 27t-66.5 73q-76 -100 -213 -100q-24 0 -49.5 6t-49 18t-43.5 31t-32 45
q-17 -28 -39 -47t-46.5 -31t-51 -17t-53.5 -5h-239z" />
    <glyph glyph-name="uniFD19" unicode="&#xfeb8;&#xfef0;" horiz-adv-x="2324" arabic-form="final" 
d="M903 0q-60 0 -99 -8t-48 -19q-2 -3 -2 -7q0 -8 19 -18q26 -14 95 -26q60 -11 106.5 -21t75.5 -32q16 -12 25 -22.5t13.5 -23t5.5 -28t1 -35.5q0 -35 -21.5 -71.5t-59 -71t-90 -65t-114 -53.5t-130.5 -36.5t-140 -13.5q-91 0 -172.5 21.5t-143 70t-98 127.5t-36.5 193
q0 34 6.5 74t18 81t27 81t34.5 75l108 -37q-28 -57 -46.5 -120t-18.5 -121q0 -75 24.5 -130t69 -91t107 -54t137.5 -18q117 0 224 26t193 92q16 13 16 22q0 3 -1 5q-5 11 -21 14q-51 7 -90 13t-70.5 13t-57 15t-48.5 19q-13 6 -23.5 19t-17.5 28t-10.5 31t-3.5 28
q0 59 29.5 101t81.5 69t123 39.5t155 12.5h81q35 0 65.5 6t53 23.5t35 49.5t12.5 84v25l98 35v-27q0 -97 33 -146.5t96 -49.5q32 0 61 5t51 22t35 49.5t13 86.5v25l98 35v-27q0 -42 6 -78t20.5 -62.5t39.5 -41t63 -14.5q70 0 111 36.5t41 126.5v25l98 39v-31q0 -45 5.5 -81
t21.5 -61.5t44.5 -39.5t74.5 -14h61v-148h-63q-66 0 -117 22t-76 78q-40 -57 -92 -78.5t-115 -21.5q-62 0 -105.5 27t-66.5 73q-76 -100 -213 -100q-24 0 -49.5 6t-49 18t-43.5 31t-32 45q-17 -28 -39 -47t-46.5 -31t-51 -17t-53.5 -5h-239zM1840 692l-111 82l-75 -94
l-109 78l80 100l107 -78l73 92l113 -77zM1715 877l-108 79l73 95l109 -78z" />
    <glyph glyph-name="uniFD1A" unicode="&#xfeb8;&#xfef2;" horiz-adv-x="2324" arabic-form="final" 
d="M628 -868l-112 84l-80 -99l-121 86l90 113l111 -82l77 96l123 -86zM903 0q-60 0 -99 -8t-48 -19q-2 -3 -2 -7q0 -8 19 -18q26 -14 95 -26q60 -11 106.5 -21t75.5 -32q16 -12 25 -22.5t13.5 -23t5.5 -28t1 -35.5q0 -35 -21.5 -71.5t-59 -71t-90 -65t-114 -53.5
t-130.5 -36.5t-140 -13.5q-91 0 -172.5 21.5t-143 70t-98 127.5t-36.5 193q0 34 6.5 74t18 81t27 81t34.5 75l108 -37q-28 -57 -46.5 -120t-18.5 -121q0 -75 24.5 -130t69 -91t107 -54t137.5 -18q117 0 224 26t193 92q16 13 16 22q0 3 -1 5q-5 11 -21 14q-51 7 -90 13
t-70.5 13t-57 15t-48.5 19q-13 6 -23.5 19t-17.5 28t-10.5 31t-3.5 28q0 59 29.5 101t81.5 69t123 39.5t155 12.5h81q35 0 65.5 6t53 23.5t35 49.5t12.5 84v25l98 35v-27q0 -97 33 -146.5t96 -49.5q32 0 61 5t51 22t35 49.5t13 86.5v25l98 35v-27q0 -42 6 -78t20.5 -62.5
t39.5 -41t63 -14.5q70 0 111 36.5t41 126.5v25l98 39v-31q0 -45 5.5 -81t21.5 -61.5t44.5 -39.5t74.5 -14h61v-148h-63q-66 0 -117 22t-76 78q-40 -57 -92 -78.5t-115 -21.5q-62 0 -105.5 27t-66.5 73q-76 -100 -213 -100q-24 0 -49.5 6t-49 18t-43.5 31t-32 45
q-17 -28 -39 -47t-46.5 -31t-51 -17t-53.5 -5h-239zM1840 692l-111 82l-75 -94l-109 78l80 100l107 -78l73 92l113 -77zM1715 877l-108 79l73 95l109 -78z" />
    <glyph glyph-name="uniFD21" unicode="&#xfebc;&#xfef0;" horiz-adv-x="2453" arabic-form="final" 
d="M2256 324q0 48 -41.5 80t-112.5 32q-48 0 -102 -28.5t-107.5 -71.5t-104 -93.5t-92.5 -94.5h160q115 0 192 18t123 45t65.5 57.5t19.5 55.5zM903 0q-60 0 -99 -8t-48 -19q-2 -3 -2 -7q0 -8 19 -18q26 -14 95 -26q60 -11 106.5 -21t75.5 -32q16 -12 25 -22.5t13.5 -23
t5.5 -28t1 -35.5q0 -35 -21.5 -71.5t-59 -71t-90 -65t-114 -53.5t-130.5 -36.5t-140 -13.5q-91 0 -172.5 21.5t-143 70t-98 127.5t-36.5 193q0 34 6.5 74t18 81t27 81t34.5 75l108 -37q-28 -57 -46.5 -120t-18.5 -121q0 -75 24.5 -130t69 -91t107 -54t137.5 -18
q117 0 224 26t193 92q16 13 16 22q0 3 -1 5q-5 11 -21 14q-51 7 -90 13t-70.5 13t-57 15t-48.5 19q-13 6 -23.5 19t-17.5 28t-10.5 31t-3.5 28q0 59 29.5 101t81.5 69t123 39.5t155 12.5h97q49 0 78 13t44 34.5t19.5 49t4.5 56.5v41l114 39v-25q0 -59 7.5 -99t23 -64
t38 -34.5t52.5 -10.5q35 0 58.5 12.5t43.5 34t40.5 50.5t50.5 62q18 20 45.5 48.5t62.5 59.5t76 61t85.5 54t91 39t93.5 15q51 0 92 -19t70 -49t44.5 -67t15.5 -74q0 -50 -11.5 -98.5t-46.5 -96.5q9 -8 17.5 -14t20 -10t28 -6t41.5 -2h51v-148h-64q-71 0 -118 22.5t-76 65.5
q-72 -45 -165.5 -66.5t-215.5 -21.5h-270q-56 0 -94.5 5t-66.5 16t-47.5 30t-37.5 47q-25 -49 -68 -73.5t-96 -24.5h-261z" />
    <glyph glyph-name="uniFD22" unicode="&#xfebc;&#xfef2;" horiz-adv-x="2453" arabic-form="final" 
d="M628 -868l-112 84l-80 -99l-121 86l90 113l111 -82l77 96l123 -86zM2256 324q0 48 -41.5 80t-112.5 32q-48 0 -102 -28.5t-107.5 -71.5t-104 -93.5t-92.5 -94.5h160q115 0 192 18t123 45t65.5 57.5t19.5 55.5zM903 0q-60 0 -99 -8t-48 -19q-2 -3 -2 -7q0 -8 19 -18
q26 -14 95 -26q60 -11 106.5 -21t75.5 -32q16 -12 25 -22.5t13.5 -23t5.5 -28t1 -35.5q0 -35 -21.5 -71.5t-59 -71t-90 -65t-114 -53.5t-130.5 -36.5t-140 -13.5q-91 0 -172.5 21.5t-143 70t-98 127.5t-36.5 193q0 34 6.5 74t18 81t27 81t34.5 75l108 -37
q-28 -57 -46.5 -120t-18.5 -121q0 -75 24.5 -130t69 -91t107 -54t137.5 -18q117 0 224 26t193 92q16 13 16 22q0 3 -1 5q-5 11 -21 14q-51 7 -90 13t-70.5 13t-57 15t-48.5 19q-13 6 -23.5 19t-17.5 28t-10.5 31t-3.5 28q0 59 29.5 101t81.5 69t123 39.5t155 12.5h97
q49 0 78 13t44 34.5t19.5 49t4.5 56.5v41l114 39v-25q0 -59 7.5 -99t23 -64t38 -34.5t52.5 -10.5q35 0 58.5 12.5t43.5 34t40.5 50.5t50.5 62q18 20 45.5 48.5t62.5 59.5t76 61t85.5 54t91 39t93.5 15q51 0 92 -19t70 -49t44.5 -67t15.5 -74q0 -50 -11.5 -98.5t-46.5 -96.5
q9 -8 17.5 -14t20 -10t28 -6t41.5 -2h51v-148h-64q-71 0 -118 22.5t-76 65.5q-72 -45 -165.5 -66.5t-215.5 -21.5h-270q-56 0 -94.5 5t-66.5 16t-47.5 30t-37.5 47q-25 -49 -68 -73.5t-96 -24.5h-261z" />
    <glyph glyph-name="uniFD23" unicode="&#xfec0;&#xfef0;" horiz-adv-x="2453" arabic-form="final" 
d="M2256 324q0 48 -41.5 80t-112.5 32q-48 0 -102 -28.5t-107.5 -71.5t-104 -93.5t-92.5 -94.5h160q115 0 192 18t123 45t65.5 57.5t19.5 55.5zM1955 801l-132 86l97 131l131 -90zM903 0q-60 0 -99 -8t-48 -19q-2 -3 -2 -7q0 -8 19 -18q26 -14 95 -26q60 -11 106.5 -21
t75.5 -32q16 -12 25 -22.5t13.5 -23t5.5 -28t1 -35.5q0 -35 -21.5 -71.5t-59 -71t-90 -65t-114 -53.5t-130.5 -36.5t-140 -13.5q-91 0 -172.5 21.5t-143 70t-98 127.5t-36.5 193q0 34 6.5 74t18 81t27 81t34.5 75l108 -37q-28 -57 -46.5 -120t-18.5 -121q0 -75 24.5 -130
t69 -91t107 -54t137.5 -18q117 0 224 26t193 92q16 13 16 22q0 3 -1 5q-5 11 -21 14q-51 7 -90 13t-70.5 13t-57 15t-48.5 19q-13 6 -23.5 19t-17.5 28t-10.5 31t-3.5 28q0 59 29.5 101t81.5 69t123 39.5t155 12.5h97q49 0 78 13t44 34.5t19.5 49t4.5 56.5v41l114 39v-25
q0 -59 7.5 -99t23 -64t38 -34.5t52.5 -10.5q35 0 58.5 12.5t43.5 34t40.5 50.5t50.5 62q18 20 45.5 48.5t62.5 59.5t76 61t85.5 54t91 39t93.5 15q51 0 92 -19t70 -49t44.5 -67t15.5 -74q0 -50 -11.5 -98.5t-46.5 -96.5q9 -8 17.5 -14t20 -10t28 -6t41.5 -2h51v-148h-64
q-71 0 -118 22.5t-76 65.5q-72 -45 -165.5 -66.5t-215.5 -21.5h-270q-56 0 -94.5 5t-66.5 16t-47.5 30t-37.5 47q-25 -49 -68 -73.5t-96 -24.5h-261z" />
    <glyph glyph-name="uniFD24" unicode="&#xfec0;&#xfef2;" horiz-adv-x="2453" arabic-form="final" 
d="M628 -868l-112 84l-80 -99l-121 86l90 113l111 -82l77 96l123 -86zM2256 324q0 48 -41.5 80t-112.5 32q-48 0 -102 -28.5t-107.5 -71.5t-104 -93.5t-92.5 -94.5h160q115 0 192 18t123 45t65.5 57.5t19.5 55.5zM1955 801l-132 86l97 131l131 -90zM903 0q-60 0 -99 -8
t-48 -19q-2 -3 -2 -7q0 -8 19 -18q26 -14 95 -26q60 -11 106.5 -21t75.5 -32q16 -12 25 -22.5t13.5 -23t5.5 -28t1 -35.5q0 -35 -21.5 -71.5t-59 -71t-90 -65t-114 -53.5t-130.5 -36.5t-140 -13.5q-91 0 -172.5 21.5t-143 70t-98 127.5t-36.5 193q0 34 6.5 74t18 81t27 81
t34.5 75l108 -37q-28 -57 -46.5 -120t-18.5 -121q0 -75 24.5 -130t69 -91t107 -54t137.5 -18q117 0 224 26t193 92q16 13 16 22q0 3 -1 5q-5 11 -21 14q-51 7 -90 13t-70.5 13t-57 15t-48.5 19q-13 6 -23.5 19t-17.5 28t-10.5 31t-3.5 28q0 59 29.5 101t81.5 69t123 39.5
t155 12.5h97q49 0 78 13t44 34.5t19.5 49t4.5 56.5v41l114 39v-25q0 -59 7.5 -99t23 -64t38 -34.5t52.5 -10.5q35 0 58.5 12.5t43.5 34t40.5 50.5t50.5 62q18 20 45.5 48.5t62.5 59.5t76 61t85.5 54t91 39t93.5 15q51 0 92 -19t70 -49t44.5 -67t15.5 -74q0 -50 -11.5 -98.5
t-46.5 -96.5q9 -8 17.5 -14t20 -10t28 -6t41.5 -2h51v-148h-64q-71 0 -118 22.5t-76 65.5q-72 -45 -165.5 -66.5t-215.5 -21.5h-270q-56 0 -94.5 5t-66.5 16t-47.5 30t-37.5 47q-25 -49 -68 -73.5t-96 -24.5h-261z" />
    <glyph glyph-name="uniFD29" unicode="&#xfeb8;&#xfeae;" horiz-adv-x="2024" arabic-form="final" 
d="M777 0q-25 0 -58 3t-66 19l-17 11q0 -68 -28.5 -132.5t-74.5 -122.5t-104 -108.5t-116.5 -92t-113 -73t-92.5 -49.5l-104 80q55 30 114.5 67.5t117 79t108.5 85.5t90 87t61.5 84t22.5 76q0 48 -23.5 105t-68.5 119l104 106q21 -29 36 -52.5t35 -48.5q13 -17 28 -32
q27 -27 62.5 -45t84.5 -18h42q35 0 65.5 6t53 23.5t35 49.5t12.5 84v25l98 35v-27q0 -97 33 -146.5t96 -49.5q32 0 61 5t51 22t35 49.5t13 86.5v25l98 35v-27q0 -42 6 -78t20.5 -62.5t39.5 -41t63 -14.5q70 0 111 36.5t41 126.5v25l98 39v-31q0 -45 5.5 -81t21.5 -61.5
t44.5 -39.5t74.5 -14h61v-148h-63q-66 0 -117 22t-76 78q-40 -57 -92 -78.5t-115 -21.5q-62 0 -105.5 27t-66.5 73q-76 -100 -213 -100q-24 0 -49.5 6t-49 18t-43.5 31t-32 45q-17 -28 -39 -47t-46.5 -31t-51 -17t-53.5 -5h-65zM1540 692l-111 82l-75 -94l-109 78l80 100
l107 -78l73 92l113 -77zM1415 877l-108 79l73 95l109 -78z" />
    <glyph glyph-name="uniFD2A" unicode="&#xfeb4;&#xfeae;" horiz-adv-x="2024" arabic-form="final" 
d="M777 0q-25 0 -58 3t-66 19l-17 11q0 -68 -28.5 -132.5t-74.5 -122.5t-104 -108.5t-116.5 -92t-113 -73t-92.5 -49.5l-104 80q55 30 114.5 67.5t117 79t108.5 85.5t90 87t61.5 84t22.5 76q0 48 -23.5 105t-68.5 119l104 106q21 -29 36 -52.5t35 -48.5q13 -17 28 -32
q27 -27 62.5 -45t84.5 -18h42q35 0 65.5 6t53 23.5t35 49.5t12.5 84v25l98 35v-27q0 -97 33 -146.5t96 -49.5q32 0 61 5t51 22t35 49.5t13 86.5v25l98 35v-27q0 -42 6 -78t20.5 -62.5t39.5 -41t63 -14.5q70 0 111 36.5t41 126.5v25l98 39v-31q0 -45 5.5 -81t21.5 -61.5
t44.5 -39.5t74.5 -14h61v-148h-63q-66 0 -117 22t-76 78q-40 -57 -92 -78.5t-115 -21.5q-62 0 -105.5 27t-66.5 73q-76 -100 -213 -100q-24 0 -49.5 6t-49 18t-43.5 31t-32 45q-17 -28 -39 -47t-46.5 -31t-51 -17t-53.5 -5h-65z" />
    <glyph glyph-name="uniFD2B" unicode="&#xfebc;&#xfeae;" horiz-adv-x="2143" arabic-form="final" 
d="M1946 324q0 48 -41.5 80t-112.5 32q-48 0 -102 -28.5t-107.5 -71.5t-104 -93.5t-92.5 -94.5h160q115 0 192 18t123 45t65.5 57.5t19.5 55.5zM777 0q-25 0 -58 3t-66 19l-17 11q0 -68 -28.5 -132.5t-74.5 -122.5t-104 -108.5t-116.5 -92t-113 -73t-92.5 -49.5l-104 80
q55 30 114.5 67.5t117 79t108.5 85.5t90 87t61.5 84t22.5 76q0 48 -23.5 105t-68.5 119l104 106q21 -29 36 -52.5t35 -48.5q13 -17 28 -32q27 -27 62.5 -45t84.5 -18h48q49 0 78 13t44 34.5t19.5 49t4.5 56.5v41l114 39v-25q0 -59 7.5 -99t23 -64t38 -34.5t52.5 -10.5
q35 0 58.5 12.5t43.5 34t40.5 50.5t50.5 62q18 20 45.5 48.5t62.5 59.5t76 61t85.5 54t91 39t93.5 15q51 0 92 -19t70 -49t44.5 -67t15.5 -74q0 -50 -11.5 -98.5t-46.5 -96.5q9 -8 17.5 -14t20 -10t28 -6t41.5 -2h51v-148h-64q-71 0 -118 22.5t-76 65.5
q-72 -45 -165.5 -66.5t-215.5 -21.5h-270q-56 0 -94.5 5t-66.5 16t-47.5 30t-37.5 47q-25 -49 -68 -73.5t-96 -24.5h-77z" />
    <glyph glyph-name="uniFD2C" unicode="&#xfec0;&#xfeae;" horiz-adv-x="2143" arabic-form="final" 
d="M1946 324q0 48 -41.5 80t-112.5 32q-48 0 -102 -28.5t-107.5 -71.5t-104 -93.5t-92.5 -94.5h160q115 0 192 18t123 45t65.5 57.5t19.5 55.5zM1645 801l-132 86l97 131l131 -90zM777 0q-25 0 -58 3t-66 19l-17 11q0 -68 -28.5 -132.5t-74.5 -122.5t-104 -108.5t-116.5 -92
t-113 -73t-92.5 -49.5l-104 80q55 30 114.5 67.5t117 79t108.5 85.5t90 87t61.5 84t22.5 76q0 48 -23.5 105t-68.5 119l104 106q21 -29 36 -52.5t35 -48.5q13 -17 28 -32q27 -27 62.5 -45t84.5 -18h48q49 0 78 13t44 34.5t19.5 49t4.5 56.5v41l114 39v-25q0 -59 7.5 -99
t23 -64t38 -34.5t52.5 -10.5q35 0 58.5 12.5t43.5 34t40.5 50.5t50.5 62q18 20 45.5 48.5t62.5 59.5t76 61t85.5 54t91 39t93.5 15q51 0 92 -19t70 -49t44.5 -67t15.5 -74q0 -50 -11.5 -98.5t-46.5 -96.5q9 -8 17.5 -14t20 -10t28 -6t41.5 -2h51v-148h-64q-71 0 -118 22.5
t-76 65.5q-72 -45 -165.5 -66.5t-215.5 -21.5h-270q-56 0 -94.5 5t-66.5 16t-47.5 30t-37.5 47q-25 -49 -68 -73.5t-96 -24.5h-77z" />
    <glyph glyph-name="uniFEF5" unicode="&#xfedf;&#xfe82;" horiz-adv-x="1173" arabic-form="isolated" 
d="M1059 1274q3 -44 7.5 -108t6.5 -139v-42q0 -56 -3 -116q-4 -82 -17.5 -162t-39 -153t-67.5 -130q18 -38 31 -65.5t21.5 -54.5t12 -58.5t3.5 -77.5q0 -70 -34.5 -112t-89.5 -62.5t-122 -23.5q-23 -2 -45 -2q-45 0 -90 5q-67 7 -125 20.5t-94 26.5l22 132h4q52 0 109 23
q58 23 110.5 60.5t93.5 83.5t60 91q-26 43 -63.5 93.5t-83.5 104t-100.5 107t-115 103t-125.5 93.5t-132 78l30 185q98 -55 193 -134t180 -168t157.5 -182t125.5 -176q24 48 38 110t20.5 130t7.5 137v45q0 45 -1 87q-2 63 -6 115t-6 85zM903 147q10 8 13 26q1 6 1 15
q0 12 -2 27q-5 24 -16 53.5t-29 61.5q-13 -18 -32 -43.5t-43 -51.5t-52.5 -49.5t-60.5 -38.5q30 -11 65 -16q32 -5 61 -5q3 0 6 1q32 0 56.5 5.5t32.5 14.5zM592 1427q-19 -34 -43.5 -59t-51.5 -41.5t-54 -24.5t-50 -8q-34 0 -60.5 4t-49.5 9.5t-45.5 9.5t-47.5 4
q-28 0 -56.5 -11t-59.5 -36l-56 72q28 34 66 59t87 25q25 0 46.5 -3.5t44 -8t47.5 -8t59 -3.5q49 0 97 21.5t92 66.5z" />
    <glyph glyph-name="uniFEF6" unicode="&#xfee0;&#xfe82;" horiz-adv-x="1319" arabic-form="final" 
d="M1282 2q-60 0 -110 30t-88 84t-63.5 129t-35.5 165q-27 -106 -83.5 -186t-134.5 -137t-172.5 -91t-197.5 -49l-60 102q74 16 152 44.5t144.5 65t114 79t60.5 86.5q3 10 3 22q0 27 -15 62q-23 49 -68 106.5t-109 119.5t-138.5 121.5t-154 112t-156.5 90.5l30 170
q73 -44 149 -97t148 -112t137.5 -122.5t117.5 -127t87.5 -126t48.5 -119.5q17 62 27.5 135t15 149.5t5.5 152.5v25q0 62 -2 119q-3 68 -6.5 123t-6.5 91l131 49v-270q-1 -40 -1 -80q0 -92 3 -179q3 -125 14 -232.5t38.5 -186.5t74.5 -124.5t121 -45.5h47v-148h-67zM592 1427
q-19 -34 -43.5 -59t-51.5 -41.5t-54 -24.5t-50 -8q-34 0 -60.5 4t-49.5 9.5t-45.5 9.5t-47.5 4q-28 0 -56.5 -11t-59.5 -36l-56 72q28 34 66 59t87 25q25 0 46.5 -3.5t44 -8t47.5 -8t59 -3.5q49 0 97 21.5t92 66.5z" />
    <glyph glyph-name="uniFEF7" unicode="&#xfedf;&#xfe84;" horiz-adv-x="1107" arabic-form="isolated" 
d="M993 1274q3 -44 7.5 -108t6.5 -139v-42q0 -56 -3 -116q-4 -82 -17.5 -162t-39 -153t-67.5 -130q18 -38 31 -65.5t21.5 -54.5t12 -58.5t3.5 -77.5q0 -70 -34.5 -112t-89.5 -62.5t-122 -23.5q-23 -2 -45 -2q-45 0 -90 5q-67 7 -125 20.5t-94 26.5l22 132h4q52 0 109 23
q58 23 110.5 60.5t93.5 83.5t60 91q-26 43 -63.5 93.5t-83.5 104t-100.5 107t-115 103t-125.5 93.5t-132 78l30 185q98 -55 193 -134t180 -168t157.5 -182t125.5 -176q24 48 38 110t20.5 130t7.5 137v45q0 45 -1 87q-2 63 -6 115t-6 85zM837 147q10 8 13 26q1 6 1 15
q0 12 -2 27q-5 24 -16 53.5t-29 61.5q-13 -18 -32 -43.5t-43 -51.5t-52.5 -49.5t-60.5 -38.5q30 -11 65 -16q32 -5 61 -5q3 0 6 1q32 0 56.5 5.5t32.5 14.5zM22 1313v67l98 41q-27 26 -38 46t-11 51t14 58.5t36 47.5t48.5 31.5t51.5 11.5q31 0 58 -8t56 -31l-22 -55
q-29 9 -53.5 11.5t-42.5 2.5q-12 0 -26.5 -4t-27 -11t-21.5 -16.5t-9 -21.5q0 -31 33.5 -50.5t84.5 -19.5q6 0 22 4t37.5 10t46.5 13t48 14v-94z" />
    <glyph glyph-name="uniFEF8" unicode="&#xfee0;&#xfe84;" horiz-adv-x="1245" arabic-form="final" 
d="M1210 2q-61 0 -111 30t-88.5 84t-63 129t-34.5 165q-28 -106 -85 -186t-135 -137t-172 -91t-196 -49l-60 102q74 16 152 44.5t144.5 65t113.5 79t59 86.5q3 11 3 23q0 26 -15 61q-22 49 -67 106.5t-109 119.5t-138 121.5t-153.5 112t-156.5 90.5l28 170q73 -44 149 -97
t148.5 -112t138 -122.5t118 -127t88 -126t48.5 -119.5q17 62 27 135t14.5 149.5t5.5 152.5v30q0 60 -2 114q-2 68 -5.5 123t-6.5 91l131 49v-270q-1 -45 -1 -89q0 -87 2 -170q3 -125 14 -232.5t38 -186.5t74 -124.5t121 -45.5h47v-148h-65zM22 1288v68l100 41
q-28 26 -38.5 45t-10.5 51q0 31 14 58t36 47t47.5 32t49.5 12q31 0 59.5 -8.5t57.5 -29.5l-22 -58q-29 11 -53.5 14t-43.5 3q-11 0 -25.5 -4.5t-27.5 -12t-22 -17.5t-9 -22q0 -31 33.5 -49t85.5 -18q6 0 22 3.5t37.5 9.5t46.5 13.5t48 14.5v-97z" />
    <glyph glyph-name="uniFEF9" unicode="&#xfedf;&#xfe88;" horiz-adv-x="1107" arabic-form="isolated" 
d="M993 1274q3 -44 7.5 -108t6.5 -139v-42q0 -56 -3 -116q-4 -82 -17.5 -162t-39 -153t-67.5 -130q18 -38 31 -65.5t21.5 -54.5t12 -58.5t3.5 -77.5q0 -70 -34.5 -112t-89.5 -62.5t-122 -23.5q-23 -2 -45 -2q-45 0 -90 5q-67 7 -125 20.5t-94 26.5l22 132h4q52 0 109 23
q58 23 110.5 60.5t93.5 83.5t60 91q-26 43 -63.5 93.5t-83.5 104t-100.5 107t-115 103t-125.5 93.5t-132 78l30 185q98 -55 193 -134t180 -168t157.5 -182t125.5 -176q24 48 38 110t20.5 130t7.5 137v45q0 45 -1 87q-2 63 -6 115t-6 85zM837 147q10 8 13 26q1 6 1 15
q0 12 -2 27q-5 24 -16 53.5t-29 61.5q-13 -18 -32 -43.5t-43 -51.5t-52.5 -49.5t-60.5 -38.5q30 -11 65 -16q32 -5 61 -5q3 0 6 1q32 0 56.5 5.5t32.5 14.5zM102 -454v67l98 41q-27 26 -38 46t-11 51t14 58.5t36 47.5t48.5 31.5t51.5 11.5q31 0 58 -8t56 -31l-22 -55
q-29 9 -53.5 11.5t-42.5 2.5q-12 0 -26.5 -4t-27 -11t-21.5 -16.5t-9 -21.5q0 -31 33.5 -50.5t84.5 -19.5q6 0 22 4t37.5 10t46.5 13t48 14v-94z" />
    <glyph glyph-name="uniFEFA" unicode="&#xfee0;&#xfe88;" horiz-adv-x="1245" arabic-form="final" 
d="M1210 2q-61 0 -111 30t-88.5 84t-63 129t-34.5 165q-28 -106 -85 -186t-135 -137t-172 -91t-196 -49l-60 102q74 16 152 44.5t144.5 65t113.5 79t59 86.5q3 11 3 23q0 26 -15 61q-22 49 -67 106.5t-109 119.5t-138 121.5t-153.5 112t-156.5 90.5l28 170q73 -44 149 -97
t148.5 -112t138 -122.5t118 -127t88 -126t48.5 -119.5q17 62 27 135t14.5 149.5t5.5 152.5v30q0 60 -2 114q-2 68 -5.5 123t-6.5 91l131 49v-270q-1 -45 -1 -89q0 -87 2 -170q3 -125 14 -232.5t38 -186.5t74 -124.5t121 -45.5h47v-148h-65zM52 -454v68l100 41
q-28 26 -38.5 45t-10.5 51q0 31 14 58t36 47t47.5 32t49.5 12q31 0 59.5 -8.5t57.5 -29.5l-22 -58q-29 11 -53.5 14t-43.5 3q-11 0 -25.5 -4.5t-27.5 -12t-22 -17.5t-9 -22q0 -31 33.5 -49t85.5 -18q6 0 22 3.5t37.5 9.5t46.5 13.5t48 14.5v-97z" />
    <glyph glyph-name="uniFEFB" unicode="&#xfedf;&#xfe8e;" horiz-adv-x="1034" arabic-form="isolated" 
d="M920 1274q3 -44 7.5 -108t6.5 -139v-42q0 -56 -3 -116q-4 -82 -18 -162t-39.5 -153t-67.5 -130q18 -38 31.5 -65.5t21.5 -54.5t12 -58.5t4 -77.5q0 -70 -34.5 -112t-89 -62.5t-122.5 -23.5q-23 -2 -45 -2q-45 0 -90 5q-67 7 -126 20.5t-95 26.5l25 132h4q52 0 108 23
q58 23 110.5 60.5t93.5 83.5t61 91q-39 65 -103 145t-145.5 159.5t-176.5 151.5t-196 123l29 185q99 -55 194 -134t180 -168t157 -182t124 -176q25 48 39 110t21 130t8 137v45q0 45 -1 87q-2 63 -5.5 115t-6.5 85zM765 147q10 8 13 26v13q0 13 -2 29q-5 24 -16 53.5
t-28 61.5q-14 -18 -33 -43.5t-42.5 -51.5t-52 -49.5t-60.5 -38.5q30 -11 65 -16q31 -5 60 -5q3 0 6 1q31 0 56 5.5t34 14.5z" />
    <glyph glyph-name="uniFEFC" unicode="&#xfee0;&#xfe8e;" horiz-adv-x="1218" arabic-form="final" 
d="M1182 2q-60 0 -110 30t-88.5 84t-63.5 129t-35 165q-27 -106 -83.5 -186t-134.5 -137t-172.5 -91t-197.5 -49l-59 102q74 16 152 44.5t144 65t113.5 79t59.5 86.5q3 11 3 23q0 26 -15 61q-22 49 -67.5 106.5t-109.5 119.5t-138 121.5t-153.5 112t-156.5 90.5l29 170
q74 -44 150 -97t148.5 -112t138 -122.5t117.5 -127t87.5 -126t48.5 -119.5q17 62 27.5 135t15 149.5t5.5 152.5v25q0 62 -2 119q-3 68 -6.5 123t-6.5 91l131 49v-270q-1 -45 -1 -89q0 -87 2 -170q3 -125 14 -232.5t38 -186.5t74 -124.5t121 -45.5h47v-148h-66z" />
    <glyph glyph-name="uniFE8B_uniFEE4.liga" unicode="&#xfe8b;&#xfee4;" horiz-adv-x="1307" 
d="M519 156q-5 18 -16.5 46t-27 54.5t-32 46t-30.5 19.5q-15 0 -31 -15t-30 -37.5t-26 -47.5t-20 -46q31 -31 62.5 -49.5t62.5 -32.5q41 -20 65 -20q11 0 18 4q13 7 13 30q0 19 -8 48zM840 657v68l100 41q-28 26 -39.5 45.5t-11.5 50.5t14 58.5t36 48t48.5 32t51.5 11.5
q31 0 58.5 -8t55.5 -31l-22 -55q-28 9 -52 11.5t-44 2.5q-11 0 -25.5 -4t-27.5 -11t-22 -17t-9 -21q0 -31 33.5 -50.5t84.5 -19.5q6 0 22 4t37.5 10t47 13t49.5 14v-94zM806 0q-47 0 -93 21.5t-91 66.5q-6 -31 -13.5 -61.5t-18.5 -54.5t-26 -38q-14 -12 -32 -12h-5
q-31 4 -66.5 13.5t-75 26.5t-82 43.5t-87.5 64.5q-21 -18 -40.5 -31.5t-39 -22t-40.5 -12.5t-46 -4h-80v148h56q34 0 62 3t51.5 12t43 26t37.5 45q15 24 37.5 63.5t48.5 76.5t55.5 64t59.5 27t56.5 -24t53 -60t56 -77t65.5 -75q23 -21 44 -36.5t42 -25.5t44 -14.5t50 -4.5
h100q134 0 164 57q9 16 9 36q0 48 -52 115l-32 45l102 113q21 -23 39 -53t31.5 -64t21.5 -70.5t8 -70.5q0 -25 -4.5 -53.5t-16.5 -57t-32.5 -55t-54 -46.5t-80.5 -32t-111 -12h-118z" />
    <glyph glyph-name="uniFE8B_uniFEF0.liga" unicode="&#xfe8b;&#xfef0;" horiz-adv-x="1567" 
d="M1100 657v68l100 41q-28 26 -39.5 45.5t-11.5 50.5t14 58.5t36 48t48.5 32t51.5 11.5q31 0 58.5 -8t55.5 -31l-22 -55q-28 9 -52 11.5t-44 2.5q-11 0 -25.5 -4t-27.5 -11t-22 -17t-9 -21q0 -31 33.5 -50.5t84.5 -19.5q6 0 22 4t37.5 10t47 13t49.5 14v-94zM903 0
q-60 0 -99 -8t-48 -19q-2 -3 -2 -7q0 -8 19 -18q26 -14 95 -26q60 -11 106.5 -21t75.5 -32q16 -12 25 -22.5t13.5 -23t5.5 -28t1 -35.5q0 -35 -21.5 -71.5t-59 -71t-90 -65t-114 -53.5t-130.5 -36.5t-140 -13.5q-91 0 -172.5 21.5t-143 70t-98 127.5t-36.5 193q0 34 6.5 74
t18 81t27 81t34.5 75l108 -37q-28 -57 -46.5 -120t-18.5 -121q0 -75 24.5 -130t69 -91t107 -54t137.5 -18q117 0 224 26t193 92q16 13 16 22q0 3 -1 5q-5 11 -21 14q-51 7 -90 13t-70.5 13t-57 15t-48.5 19q-13 6 -23.5 19t-17.5 28t-10.5 31t-3.5 28q0 59 29.5 101t81.5 69
t123 39.5t155 12.5h156q134 0 164 57q9 16 9 36q0 48 -52 115l-32 45l102 113q21 -23 39 -53t31.5 -64t21.5 -70.5t8 -70.5q0 -25 -4.5 -53.5t-16.5 -57t-32.5 -55t-54 -46.5t-80.5 -32t-111 -12h-281z" />
    <glyph glyph-name="uniFE8B_uniFEF2.liga" unicode="&#xfe8b;&#xfef2;" horiz-adv-x="1567" 
d="M628 -868l-112 84l-80 -99l-121 86l90 113l111 -82l77 96l123 -86zM1100 657v68l100 41q-28 26 -39.5 45.5t-11.5 50.5t14 58.5t36 48t48.5 32t51.5 11.5q31 0 58.5 -8t55.5 -31l-22 -55q-28 9 -52 11.5t-44 2.5q-11 0 -25.5 -4t-27.5 -11t-22 -17t-9 -21
q0 -31 33.5 -50.5t84.5 -19.5q6 0 22 4t37.5 10t47 13t49.5 14v-94zM903 0q-60 0 -99 -8t-48 -19q-2 -3 -2 -7q0 -8 19 -18q26 -14 95 -26q60 -11 106.5 -21t75.5 -32q16 -12 25 -22.5t13.5 -23t5.5 -28t1 -35.5q0 -35 -21.5 -71.5t-59 -71t-90 -65t-114 -53.5t-130.5 -36.5
t-140 -13.5q-91 0 -172.5 21.5t-143 70t-98 127.5t-36.5 193q0 34 6.5 74t18 81t27 81t34.5 75l108 -37q-28 -57 -46.5 -120t-18.5 -121q0 -75 24.5 -130t69 -91t107 -54t137.5 -18q117 0 224 26t193 92q16 13 16 22q0 3 -1 5q-5 11 -21 14q-51 7 -90 13t-70.5 13t-57 15
t-48.5 19q-13 6 -23.5 19t-17.5 28t-10.5 31t-3.5 28q0 59 29.5 101t81.5 69t123 39.5t155 12.5h156q134 0 164 57q9 16 9 36q0 48 -52 115l-32 45l102 113q21 -23 39 -53t31.5 -64t21.5 -70.5t8 -70.5q0 -25 -4.5 -53.5t-16.5 -57t-32.5 -55t-54 -46.5t-80.5 -32t-111 -12
h-281z" />
    <glyph glyph-name="uniFE91_uniFEE4.liga" unicode="&#xfe91;&#xfee4;" horiz-adv-x="1275" 
d="M519 156q-5 18 -16.5 46t-27 54.5t-32 46t-30.5 19.5q-15 0 -31 -15t-30 -37.5t-26 -47.5t-20 -46q31 -31 62.5 -49.5t62.5 -32.5q41 -20 65 -20q11 0 18 4q13 7 13 30q0 19 -8 48zM806 0q-47 0 -93 21.5t-91 66.5q-6 -31 -13.5 -61.5t-18.5 -54.5t-26 -38
q-14 -12 -32 -12h-5q-31 4 -66.5 13.5t-75 26.5t-82 43.5t-87.5 64.5q-21 -18 -40.5 -31.5t-39 -22t-40.5 -12.5t-46 -4h-80v148h56q34 0 62 3t51.5 12t43 26t37.5 45q15 24 37.5 63.5t48.5 76.5t55.5 64t59.5 27t56.5 -24t53 -60t56 -77t65.5 -75q23 -21 44 -36.5t42 -25.5
t44 -14.5t50 -4.5h70q134 0 164 57q9 16 9 36q0 48 -52 115l-32 45l102 113q21 -23 39 -53t31.5 -64t21.5 -70.5t8 -70.5q0 -25 -4.5 -53.5t-16.5 -57t-32.5 -55t-54 -46.5t-80.5 -32t-111 -12h-88zM1058 -410l-131 89l96 131l131 -91z" />
    <glyph glyph-name="uniFE92_uniFEE6.liga" unicode="&#xfe92;&#xfee6;" horiz-adv-x="1711" 
d="M558 352l-123 82l92 125l125 -86zM1392 -410l-131 89l96 131l131 -91zM1121 0q-31 1 -53 9q-27 9 -55 38q1 -23 1 -45q0 -98 -29 -178q-36 -99 -104.5 -167t-163.5 -104t-206 -36q-103 0 -180.5 32.5t-130 88t-79 129.5t-26.5 157q0 28 6.5 65t17.5 77t27 79t35 72
l95 -35q-13 -21 -24.5 -51t-20.5 -62t-14 -63t-5 -53q0 -68 19 -123t58 -93.5t100 -59.5t145 -21q88 0 157 25.5t117 68t73 97.5t25 114q0 75 -26 151t-64 138l111 94q18 -36 37 -72t43 -65.5t51 -44.5q24 -14 58 -14h90q26 0 58 6.5t59.5 23t46 44.5t18.5 71v61l103 29
q1 -78 14.5 -124.5t38 -71t59 -32t76.5 -7.5h62v-148h-86q-31 0 -64 4t-64 16.5t-57.5 36.5t-44.5 64q-15 -32 -40 -54.5t-54.5 -37.5t-60 -22t-56.5 -7h-93z" />
    <glyph glyph-name="uniFE91_uniFEF0.liga" unicode="&#xfe91;&#xfef0;" horiz-adv-x="1535" 
d="M903 0q-60 0 -99 -8t-48 -19q-2 -3 -2 -7q0 -8 19 -18q26 -14 95 -26q60 -11 106.5 -21t75.5 -32q16 -12 25 -22.5t13.5 -23t5.5 -28t1 -35.5q0 -35 -21.5 -71.5t-59 -71t-90 -65t-114 -53.5t-130.5 -36.5t-140 -13.5q-91 0 -172.5 21.5t-143 70t-98 127.5t-36.5 193
q0 34 6.5 74t18 81t27 81t34.5 75l108 -37q-28 -57 -46.5 -120t-18.5 -121q0 -75 24.5 -130t69 -91t107 -54t137.5 -18q117 0 224 26t193 92q16 13 16 22q0 3 -1 5q-5 11 -21 14q-51 7 -90 13t-70.5 13t-57 15t-48.5 19q-13 6 -23.5 19t-17.5 28t-10.5 31t-3.5 28
q0 59 29.5 101t81.5 69t123 39.5t155 12.5h126q134 0 164 57q9 16 9 36q0 48 -52 115l-32 45l102 113q21 -23 39 -53t31.5 -64t21.5 -70.5t8 -70.5q0 -25 -4.5 -53.5t-16.5 -57t-32.5 -55t-54 -46.5t-80.5 -32t-111 -12h-251zM1318 -410l-131 89l96 131l131 -91z" />
    <glyph glyph-name="uniFE91_uniFEF2.liga" unicode="&#xfe91;&#xfef2;" horiz-adv-x="1535" 
d="M628 -868l-112 84l-80 -99l-121 86l90 113l111 -82l77 96l123 -86zM903 0q-60 0 -99 -8t-48 -19q-2 -3 -2 -7q0 -8 19 -18q26 -14 95 -26q60 -11 106.5 -21t75.5 -32q16 -12 25 -22.5t13.5 -23t5.5 -28t1 -35.5q0 -35 -21.5 -71.5t-59 -71t-90 -65t-114 -53.5
t-130.5 -36.5t-140 -13.5q-91 0 -172.5 21.5t-143 70t-98 127.5t-36.5 193q0 34 6.5 74t18 81t27 81t34.5 75l108 -37q-28 -57 -46.5 -120t-18.5 -121q0 -75 24.5 -130t69 -91t107 -54t137.5 -18q117 0 224 26t193 92q16 13 16 22q0 3 -1 5q-5 11 -21 14q-51 7 -90 13
t-70.5 13t-57 15t-48.5 19q-13 6 -23.5 19t-17.5 28t-10.5 31t-3.5 28q0 59 29.5 101t81.5 69t123 39.5t155 12.5h126q134 0 164 57q9 16 9 36q0 48 -52 115l-32 45l102 113q21 -23 39 -53t31.5 -64t21.5 -70.5t8 -70.5q0 -25 -4.5 -53.5t-16.5 -57t-32.5 -55t-54 -46.5
t-80.5 -32t-111 -12h-251zM1318 -410l-131 89l96 131l131 -91z" />
    <glyph glyph-name="uniFE97_uniFEE4.liga" unicode="&#xfe97;&#xfee4;" horiz-adv-x="1305" 
d="M519 156q-5 18 -16.5 46t-27 54.5t-32 46t-30.5 19.5q-15 0 -31 -15t-30 -37.5t-26 -47.5t-20 -46q31 -31 62.5 -49.5t62.5 -32.5q41 -20 65 -20q11 0 18 4q13 7 13 30q0 19 -8 48zM800 0q-44 1 -87 22q-46 21 -91 66q-6 -31 -13.5 -61.5t-18.5 -54.5t-26 -38
q-14 -12 -32 -12h-5q-31 4 -66.5 13.5t-75 26.5t-82 43.5t-87.5 64.5q-21 -18 -40.5 -31.5t-39 -22t-40.5 -12.5t-46 -4h-80v148h56q34 0 62 3t51.5 12t43 26t37.5 45q15 24 37.5 63.5t48.5 76.5t55.5 64t59.5 27t56.5 -24t53 -60t56 -77t65.5 -75q23 -21 44 -36.5t42 -25.5
t44 -14.5t50 -4.5h100q134 0 164 57q9 16 9 36q0 48 -52 115l-32 45l102 113q21 -23 39 -53t31.5 -64t21.5 -70.5t8 -70.5q0 -25 -4.5 -53.5t-16.5 -57t-32.5 -55t-54 -46.5t-80.5 -32t-111 -12h-124zM1129 675l-113 84l-82 -98l-121 86l92 112l109 -82l80 97l123 -86z" />
    <glyph glyph-name="uniFE98_uniFEE6.liga" unicode="&#xfe98;&#xfee6;" horiz-adv-x="1731" 
d="M558 352l-123 82l92 125l125 -86zM1120 0q-30 1 -52 9q-27 9 -55 38q1 -23 1 -45q0 -98 -29 -178q-36 -99 -104.5 -167t-163.5 -104t-206 -36q-103 0 -180.5 32.5t-130 88t-79 129.5t-26.5 157q0 28 6.5 65t17.5 77t27 79t35 72l95 -35q-13 -21 -24.5 -51t-20.5 -62
t-14 -63t-5 -53q0 -68 19 -123t58 -93.5t100 -59.5t145 -21q88 0 157 25.5t117 68t73 97.5t25 114q0 75 -26 151t-64 138l111 94q18 -36 37 -72t43 -65.5t51 -44.5q24 -14 58 -14h110q26 0 58 6.5t59.5 23t46 44.5t18.5 71v61l103 29q1 -78 14.5 -124.5t38 -71t59 -32
t76.5 -7.5h62v-148h-86q-31 0 -64 4t-64 16.5t-57.5 36.5t-44.5 64q-15 -32 -40 -54.5t-54.5 -37.5t-60 -22t-56.5 -7h-114zM1452 623l-113 84l-82 -98l-121 86l92 112l109 -82l80 97l123 -86z" />
    <glyph glyph-name="uniFE97_uniFEF0.liga" unicode="&#xfe97;&#xfef0;" horiz-adv-x="1565" 
d="M903 0q-60 0 -99 -8t-48 -19q-2 -3 -2 -7q0 -8 19 -18q26 -14 95 -26q60 -11 106.5 -21t75.5 -32q16 -12 25 -22.5t13.5 -23t5.5 -28t1 -35.5q0 -35 -21.5 -71.5t-59 -71t-90 -65t-114 -53.5t-130.5 -36.5t-140 -13.5q-91 0 -172.5 21.5t-143 70t-98 127.5t-36.5 193
q0 34 6.5 74t18 81t27 81t34.5 75l108 -37q-28 -57 -46.5 -120t-18.5 -121q0 -75 24.5 -130t69 -91t107 -54t137.5 -18q117 0 224 26t193 92q16 13 16 22q0 3 -1 5q-5 11 -21 14q-51 7 -90 13t-70.5 13t-57 15t-48.5 19q-13 6 -23.5 19t-17.5 28t-10.5 31t-3.5 28
q0 59 29.5 101t81.5 69t123 39.5t155 12.5h156q134 0 164 57q9 16 9 36q0 48 -52 115l-32 45l102 113q21 -23 39 -53t31.5 -64t21.5 -70.5t8 -70.5q0 -25 -4.5 -53.5t-16.5 -57t-32.5 -55t-54 -46.5t-80.5 -32t-111 -12h-281zM1389 672l-113 84l-82 -98l-121 86l92 112
l109 -82l80 97l123 -86z" />
    <glyph glyph-name="uniFE97_uniFEF2.liga" unicode="&#xfe97;&#xfef2;" horiz-adv-x="1565" 
d="M628 -868l-112 84l-80 -99l-121 86l90 113l111 -82l77 96l123 -86zM903 0q-60 0 -99 -8t-48 -19q-2 -3 -2 -7q0 -8 19 -18q26 -14 95 -26q60 -11 106.5 -21t75.5 -32q16 -12 25 -22.5t13.5 -23t5.5 -28t1 -35.5q0 -35 -21.5 -71.5t-59 -71t-90 -65t-114 -53.5
t-130.5 -36.5t-140 -13.5q-91 0 -172.5 21.5t-143 70t-98 127.5t-36.5 193q0 34 6.5 74t18 81t27 81t34.5 75l108 -37q-28 -57 -46.5 -120t-18.5 -121q0 -75 24.5 -130t69 -91t107 -54t137.5 -18q117 0 224 26t193 92q16 13 16 22q0 3 -1 5q-5 11 -21 14q-51 7 -90 13
t-70.5 13t-57 15t-48.5 19q-13 6 -23.5 19t-17.5 28t-10.5 31t-3.5 28q0 59 29.5 101t81.5 69t123 39.5t155 12.5h156q134 0 164 57q9 16 9 36q0 48 -52 115l-32 45l102 113q21 -23 39 -53t31.5 -64t21.5 -70.5t8 -70.5q0 -25 -4.5 -53.5t-16.5 -57t-32.5 -55t-54 -46.5
t-80.5 -32t-111 -12h-281zM1389 672l-113 84l-82 -98l-121 86l92 112l109 -82l80 97l123 -86z" />
    <glyph glyph-name="uniFE9C_uniFEAE.liga" unicode="&#xfe9c;&#xfeae;" horiz-adv-x="1381" 
d="M979 803l-111 80l76 94l106 -78zM770 0q-23 0 -51 3q-33 3 -66 19l-17 11q0 -68 -28.5 -132.5t-74.5 -122.5t-104 -108.5t-116.5 -92t-113 -73t-92.5 -49.5l-104 80q55 30 114.5 67.5t117 79t108.5 85.5t90 87t61.5 84t22.5 76q0 48 -23.5 105t-68.5 119l104 106
q21 -29 36 -52.5t35 -48.5q13 -17 28 -32q27 -27 62.5 -45t84.5 -18h101q26 0 58 6.5t59.5 23t46 44.5t18.5 71v61l103 29q1 -78 14.5 -124.5t38 -71t59 -32t76.5 -7.5h62v-148h-86q-31 0 -64 4t-64 16.5t-57.5 36.5t-44.5 64q-15 -32 -40 -54.5t-54.5 -37.5t-60 -22
t-56.5 -7h-114zM1102 621l-111 79l-76 -94l-108 78l80 100l106 -77l76 92l111 -78z" />
    <glyph glyph-name="uniFE9B_uniFEE4.liga" unicode="&#xfe9b;&#xfee4;" horiz-adv-x="1305" 
d="M519 156q-5 18 -16.5 46t-27 54.5t-32 46t-30.5 19.5q-15 0 -31 -15t-30 -37.5t-26 -47.5t-20 -46q31 -31 62.5 -49.5t62.5 -32.5q41 -20 65 -20q11 0 18 4q13 7 13 30q0 19 -8 48zM800 0q-44 1 -87 22q-46 21 -91 66q-6 -31 -13.5 -61.5t-18.5 -54.5t-26 -38
q-14 -12 -32 -12h-5q-31 4 -66.5 13.5t-75 26.5t-82 43.5t-87.5 64.5q-21 -18 -40.5 -31.5t-39 -22t-40.5 -12.5t-46 -4h-80v148h56q34 0 62 3t51.5 12t43 26t37.5 45q15 24 37.5 63.5t48.5 76.5t55.5 64t59.5 27t56.5 -24t53 -60t56 -77t65.5 -75q23 -21 44 -36.5t42 -25.5
t44 -14.5t50 -4.5h100q134 0 164 57q9 16 9 36q0 48 -52 115l-32 45l102 113q21 -23 39 -53t31.5 -64t21.5 -70.5t8 -70.5q0 -25 -4.5 -53.5t-16.5 -57t-32.5 -55t-54 -46.5t-80.5 -32t-111 -12h-124zM1131 672l-111 82l-76 -94l-110 77l82 101l106 -80l74 92l111 -78z
M1006 854l-109 80l74 96l106 -78z" />
    <glyph glyph-name="uniFE9C_uniFEE6.liga" unicode="&#xfe9c;&#xfee6;" horiz-adv-x="1731" 
d="M558 352l-123 82l92 125l125 -86zM1120 0q-30 1 -52 9q-27 9 -55 38q1 -23 1 -45q0 -98 -29 -178q-36 -99 -104.5 -167t-163.5 -104t-206 -36q-103 0 -180.5 32.5t-130 88t-79 129.5t-26.5 157q0 28 6.5 65t17.5 77t27 79t35 72l95 -35q-13 -21 -24.5 -51t-20.5 -62
t-14 -63t-5 -53q0 -68 19 -123t58 -93.5t100 -59.5t145 -21q88 0 157 25.5t117 68t73 97.5t25 114q0 75 -26 151t-64 138l111 94q18 -36 37 -72t43 -65.5t51 -44.5q24 -14 58 -14h110q26 0 58 6.5t59.5 23t46 44.5t18.5 71v61l103 29q1 -78 14.5 -124.5t38 -71t59 -32
t76.5 -7.5h62v-148h-86q-31 0 -64 4t-64 16.5t-57.5 36.5t-44.5 64q-15 -32 -40 -54.5t-54.5 -37.5t-60 -22t-56.5 -7h-114zM1452 621l-111 79l-76 -94l-108 78l80 100l106 -77l76 92l111 -78zM1329 803l-111 80l76 94l106 -78z" />
    <glyph glyph-name="uniFE9B_uniFEF0.liga" unicode="&#xfe9b;&#xfef0;" horiz-adv-x="1565" 
d="M903 0q-60 0 -99 -8t-48 -19q-2 -3 -2 -7q0 -8 19 -18q26 -14 95 -26q60 -11 106.5 -21t75.5 -32q16 -12 25 -22.5t13.5 -23t5.5 -28t1 -35.5q0 -35 -21.5 -71.5t-59 -71t-90 -65t-114 -53.5t-130.5 -36.5t-140 -13.5q-91 0 -172.5 21.5t-143 70t-98 127.5t-36.5 193
q0 34 6.5 74t18 81t27 81t34.5 75l108 -37q-28 -57 -46.5 -120t-18.5 -121q0 -75 24.5 -130t69 -91t107 -54t137.5 -18q117 0 224 26t193 92q16 13 16 22q0 3 -1 5q-5 11 -21 14q-51 7 -90 13t-70.5 13t-57 15t-48.5 19q-13 6 -23.5 19t-17.5 28t-10.5 31t-3.5 28
q0 59 29.5 101t81.5 69t123 39.5t155 12.5h156q134 0 164 57q9 16 9 36q0 48 -52 115l-32 45l102 113q21 -23 39 -53t31.5 -64t21.5 -70.5t8 -70.5q0 -25 -4.5 -53.5t-16.5 -57t-32.5 -55t-54 -46.5t-80.5 -32t-111 -12h-281zM1391 672l-111 82l-76 -94l-110 77l82 101
l106 -80l74 92l111 -78zM1266 854l-109 80l74 96l106 -78z" />
    <glyph glyph-name="uniFE9B_uniFEF2.liga" unicode="&#xfe9b;&#xfef2;" horiz-adv-x="1565" 
d="M628 -868l-112 84l-80 -99l-121 86l90 113l111 -82l77 96l123 -86zM903 0q-60 0 -99 -8t-48 -19q-2 -3 -2 -7q0 -8 19 -18q26 -14 95 -26q60 -11 106.5 -21t75.5 -32q16 -12 25 -22.5t13.5 -23t5.5 -28t1 -35.5q0 -35 -21.5 -71.5t-59 -71t-90 -65t-114 -53.5
t-130.5 -36.5t-140 -13.5q-91 0 -172.5 21.5t-143 70t-98 127.5t-36.5 193q0 34 6.5 74t18 81t27 81t34.5 75l108 -37q-28 -57 -46.5 -120t-18.5 -121q0 -75 24.5 -130t69 -91t107 -54t137.5 -18q117 0 224 26t193 92q16 13 16 22q0 3 -1 5q-5 11 -21 14q-51 7 -90 13
t-70.5 13t-57 15t-48.5 19q-13 6 -23.5 19t-17.5 28t-10.5 31t-3.5 28q0 59 29.5 101t81.5 69t123 39.5t155 12.5h156q134 0 164 57q9 16 9 36q0 48 -52 115l-32 45l102 113q21 -23 39 -53t31.5 -64t21.5 -70.5t8 -70.5q0 -25 -4.5 -53.5t-16.5 -57t-32.5 -55t-54 -46.5
t-80.5 -32t-111 -12h-281zM1391 672l-111 82l-76 -94l-110 77l82 101l106 -80l74 92l111 -78zM1266 854l-109 80l74 96l106 -78z" />
    <glyph glyph-name="uniFEDB_uniFEF0.liga" unicode="&#xfedb;&#xfef0;" horiz-adv-x="1830" 
d="M903 0q-60 0 -99 -8t-48 -19q-2 -3 -2 -7q0 -8 19 -18q26 -14 95 -26q60 -11 106.5 -21t75.5 -32q16 -12 25 -22.5t13.5 -23t5.5 -28t1 -35.5q0 -35 -21.5 -71.5t-59 -71t-90 -65t-114 -53.5t-130.5 -36.5t-140 -13.5q-91 0 -172.5 21.5t-143 70t-98 127.5t-36.5 193
q0 34 6.5 74t18 81t27 81t34.5 75l108 -37q-28 -57 -46.5 -120t-18.5 -121q0 -75 24.5 -130t69 -91t107 -54t137.5 -18q117 0 224 26t193 92q16 13 16 22q0 3 -1 5q-5 11 -21 14q-51 7 -90 13t-70.5 13t-57 15t-48.5 19q-13 6 -23.5 19t-17.5 28t-10.5 31t-3.5 28
q0 59 29.5 101t81.5 69t123 39.5t155 12.5h128q104 0 161 38t57 109q0 47 -25 91t-66.5 89t-96 93t-113.5 102q1 15 4 39.5t7.5 48.5t10.5 42.5t12 22.5q39 27 94.5 61t121 71t137 75t143 74t139.5 68q31 15 60 28l-20 -155q-22 -10 -45 -20q-60 -28 -123 -58.5t-126 -63
t-118 -62.5t-99 -56t-69 -44q17 -14 44.5 -37t59.5 -53.5t65 -68t59.5 -81t43 -91.5t16.5 -99q0 -13 -4.5 -41.5t-18 -63t-39 -71t-68 -66.5t-103.5 -49q-53 -17 -123 -20h-239z" />
    <glyph glyph-name="uniFEDC_uniFEF0.liga" unicode="&#xfedc;&#xfef0;" horiz-adv-x="1996" 
d="M903 0q-60 0 -99 -8t-48 -19q-2 -3 -2 -7q0 -8 19 -18q26 -14 95 -26q60 -11 106.5 -21t75.5 -32q16 -12 25 -22.5t13.5 -23t5.5 -28t1 -35.5q0 -35 -21.5 -71.5t-59 -71t-90 -65t-114 -53.5t-130.5 -36.5t-140 -13.5q-91 0 -172.5 21.5t-143 70t-98 127.5t-36.5 193
q0 34 6.5 74t18 81t27 81t34.5 75l108 -37q-28 -57 -46.5 -120t-18.5 -121q0 -75 24.5 -130t69 -91t107 -54t137.5 -18q117 0 224 26t193 92q16 13 16 22q0 3 -1 5q-5 11 -21 14q-51 7 -90 13t-70.5 13t-57 15t-48.5 19q-13 6 -23.5 19t-17.5 28t-10.5 31t-3.5 28
q0 59 29.5 101t81.5 69t123 39.5t155 12.5h105q133 0 203 36.5t70 126.5q0 43 -19.5 79t-54.5 74t-85.5 82t-111.5 103q1 15 2 40t3 49t6 43t10 24q44 32 107 70.5t136 79.5t151 82.5t152 78.5q66 33 127 61l-20 -154q-56 -25 -115 -54q-68 -33 -136.5 -67.5t-128.5 -67
t-107 -61t-72 -48.5q42 -35 80 -66t72.5 -61t66.5 -61t64 -68q48 -56 99 -113t103 -103.5t104 -75.5t103 -29h66v-148h-62q-43 0 -94.5 12.5t-110 48.5t-122 101.5t-129.5 171.5q5 -32 5 -62q0 -51 -15 -91q-23 -64 -72 -104t-118 -58.5t-149 -18.5h-246z" />
    <glyph glyph-name="uniFEDB_uniFEF2.liga" unicode="&#xfedb;&#xfef2;" horiz-adv-x="1830" 
d="M628 -868l-112 84l-80 -99l-121 86l90 113l111 -82l77 96l123 -86zM903 0q-60 0 -99 -8t-48 -19q-2 -3 -2 -7q0 -8 19 -18q26 -14 95 -26q60 -11 106.5 -21t75.5 -32q16 -12 25 -22.5t13.5 -23t5.5 -28t1 -35.5q0 -35 -21.5 -71.5t-59 -71t-90 -65t-114 -53.5
t-130.5 -36.5t-140 -13.5q-91 0 -172.5 21.5t-143 70t-98 127.5t-36.5 193q0 34 6.5 74t18 81t27 81t34.5 75l108 -37q-28 -57 -46.5 -120t-18.5 -121q0 -75 24.5 -130t69 -91t107 -54t137.5 -18q117 0 224 26t193 92q16 13 16 22q0 3 -1 5q-5 11 -21 14q-51 7 -90 13
t-70.5 13t-57 15t-48.5 19q-13 6 -23.5 19t-17.5 28t-10.5 31t-3.5 28q0 59 29.5 101t81.5 69t123 39.5t155 12.5h128q104 0 161 38t57 109q0 47 -25 91t-66.5 89t-96 93t-113.5 102q1 15 4 39.5t7.5 48.5t10.5 42.5t12 22.5q39 27 94.5 61t121 71t137 75t143 74t139.5 68
q31 15 60 28l-20 -155q-22 -10 -45 -20q-60 -28 -123 -58.5t-126 -63t-118 -62.5t-99 -56t-69 -44q17 -14 44.5 -37t59.5 -53.5t65 -68t59.5 -81t43 -91.5t16.5 -99q0 -13 -4.5 -41.5t-18 -63t-39 -71t-68 -66.5t-103.5 -49q-53 -17 -123 -20h-239z" />
    <glyph glyph-name="uniFEDC_uniFEF2.liga" unicode="&#xfedc;&#xfef2;" horiz-adv-x="1996" 
d="M628 -868l-112 84l-80 -99l-121 86l90 113l111 -82l77 96l123 -86zM903 0q-60 0 -99 -8t-48 -19q-2 -3 -2 -7q0 -8 19 -18q26 -14 95 -26q60 -11 106.5 -21t75.5 -32q16 -12 25 -22.5t13.5 -23t5.5 -28t1 -35.5q0 -35 -21.5 -71.5t-59 -71t-90 -65t-114 -53.5
t-130.5 -36.5t-140 -13.5q-91 0 -172.5 21.5t-143 70t-98 127.5t-36.5 193q0 34 6.5 74t18 81t27 81t34.5 75l108 -37q-28 -57 -46.5 -120t-18.5 -121q0 -75 24.5 -130t69 -91t107 -54t137.5 -18q117 0 224 26t193 92q16 13 16 22q0 3 -1 5q-5 11 -21 14q-51 7 -90 13
t-70.5 13t-57 15t-48.5 19q-13 6 -23.5 19t-17.5 28t-10.5 31t-3.5 28q0 59 29.5 101t81.5 69t123 39.5t155 12.5h105q133 0 203 36.5t70 126.5q0 43 -19.5 79t-54.5 74t-85.5 82t-111.5 103q1 15 2 40t3 49t6 43t10 24q44 32 107 70.5t136 79.5t151 82.5t152 78.5
q66 33 127 61l-20 -154q-56 -25 -115 -54q-68 -33 -136.5 -67.5t-128.5 -67t-107 -61t-72 -48.5q42 -35 80 -66t72.5 -61t66.5 -61t64 -68q48 -56 99 -113t103 -103.5t104 -75.5t103 -29h66v-148h-62q-43 0 -94.5 12.5t-110 48.5t-122 101.5t-129.5 171.5q5 -32 5 -62
q0 -51 -15 -91q-23 -64 -72 -104t-118 -58.5t-149 -18.5h-246z" />
    <glyph glyph-name="uniFEDF_uniFB51.rlig" unicode="&#xfedf;&#xfb51;" horiz-adv-x="1173" 
d="M1059 1274q3 -44 7.5 -108t6.5 -139v-42q0 -56 -3 -116q-4 -82 -17.5 -162t-39 -153t-67.5 -130q18 -38 31 -65.5t21.5 -54.5t12 -58.5t3.5 -77.5q0 -70 -34.5 -112t-89.5 -62.5t-122 -23.5q-23 -2 -45 -2q-45 0 -90 5q-67 7 -125 20.5t-94 26.5l22 132h4q52 0 109 23
q58 23 110.5 60.5t93.5 83.5t60 91q-26 43 -63.5 93.5t-83.5 104t-100.5 107t-115 103t-125.5 93.5t-132 78l30 185q98 -55 193 -134t180 -168t157.5 -182t125.5 -176q24 48 38 110t20.5 130t7.5 137v45q0 45 -1 87q-2 63 -6 115t-6 85zM903 147q10 8 13 26q1 6 1 15
q0 12 -2 27q-5 24 -16 53.5t-29 61.5q-13 -18 -32 -43.5t-43 -51.5t-52.5 -49.5t-60.5 -38.5q30 -11 65 -16q32 -5 61 -5q3 0 6 1q32 0 56.5 5.5t32.5 14.5zM501 1436q0 -41 -20 -68t-51.5 -44t-71.5 -24t-79 -7q-37 0 -58.5 5t-36 11.5t-26 11.5t-28.5 5q-6 0 -16 -4
t-20 -9.5t-19 -11t-13 -8.5l-39 45q21 24 44 37t45 18q14 3 27 3h14q19 -3 34 -9q15 18 38.5 42.5t53.5 47t64 38.5t70 16q24 0 40.5 -9t27 -22.5t15.5 -30.5t5 -33zM462 1428q0 10 -7 17t-18 11.5t-24.5 6.5t-26.5 2q-18 0 -38.5 -7.5t-41 -19.5t-38.5 -26.5t-32 -28.5
q23 -8 62 -8q38 0 74.5 6t63 18t26.5 29z" />
    <glyph glyph-name="uniFEE0_uniFB51.rlig" unicode="&#xfee0;&#xfb51;" horiz-adv-x="1319" 
d="M1282 2q-60 0 -110 30t-88 84t-63.5 129t-35.5 165q-27 -106 -83.5 -186t-134.5 -137t-172.5 -91t-197.5 -49l-60 102q74 16 152 44.5t144.5 65t114 79t60.5 86.5q3 10 3 22q0 27 -15 62q-23 49 -68 106.5t-109 119.5t-138.5 121.5t-154 112t-156.5 90.5l30 170
q73 -44 149 -97t148 -112t137.5 -122.5t117.5 -127t87.5 -126t48.5 -119.5q17 62 27.5 135t15 149.5t5.5 152.5v25q0 62 -2 119q-3 68 -6.5 123t-6.5 91l131 49v-270q-1 -40 -1 -80q0 -92 3 -179q3 -125 14 -232.5t38.5 -186.5t74.5 -124.5t121 -45.5h47v-148h-67zM501 1436
q0 -41 -20 -68t-51.5 -44t-71.5 -24t-79 -7q-37 0 -58.5 5t-36 11.5t-26 11.5t-28.5 5q-6 0 -16 -4t-20 -9.5t-19 -11t-13 -8.5l-39 45q21 24 44 37t45 18q14 3 27 3h14q19 -3 34 -9q15 18 38.5 42.5t53.5 47t64 38.5t70 16q24 0 40.5 -9t27 -22.5t15.5 -30.5t5 -33z
M462 1428q0 10 -7 17t-18 11.5t-24.5 6.5t-26.5 2q-18 0 -38.5 -7.5t-41 -19.5t-38.5 -26.5t-32 -28.5q23 -8 62 -8q38 0 74.5 6t63 18t26.5 29z" />
    <glyph glyph-name="uniFEDF_uniFEE2.liga" unicode="&#xfedf;&#xfee2;" horiz-adv-x="1342" 
d="M622 31q-7 11 -14.5 23t-22.5 26t-40 31t-66 39v-29q0 -52 6 -91q7 -50 21 -81.5t33.5 -46.5t41.5 -15q23 0 37.5 14.5t20.5 36.5q3 13 3 26q0 10 -2 21q-4 25 -18 46zM909 0q-54 0 -99.5 9t-87.5 34q18 -39 20 -92v-10q0 -49 -13 -92q-15 -49 -44.5 -83t-74.5 -34
q-51 0 -87.5 16.5t-61.5 43.5t-40 62t-23 71q-12 57 -12 124q0 34 3 70q-57 0 -92.5 -16t-55 -47.5t-26.5 -77.5t-7 -107v-737h-106l-14 825v6q0 51 16 104q17 56 54 102.5t94.5 76t138.5 29.5l12 92q62 -37 125 -76t127.5 -71.5t131 -53t136.5 -20.5h59q50 0 80.5 15t47 51
t20.5 96q2 34 2 79q0 33 -1 72l-22 739l133 66v-834q0 -79 -7 -156.5t-33 -138.5t-78.5 -99t-143.5 -38h-71z" />
    <glyph glyph-name="uniFEE4_uniFE8E.liga" unicode="&#xfee4;&#xfe8e;" horiz-adv-x="1259" 
d="M939 156q-5 18 -16.5 46t-27 54.5t-32 46t-30.5 19.5q-15 0 -31 -15t-30 -37.5t-26 -47.5t-20 -46q31 -31 62.5 -49.5t62.5 -32.5q41 -20 65 -20q11 0 18 4q13 7 13 30q0 19 -8 48zM389 0q-54 0 -101.5 16t-83.5 61t-59 125t-29 208q-3 72 -4 132.5t-2 117.5t-1.5 113.5
t-2.5 120t-6.5 138.5t-11.5 168l131 66q6 -126 8.5 -243.5t4 -223.5t2.5 -197.5t3 -165.5q3 -82 14 -137.5t32 -89t52 -47.5t74 -14h37q34 0 62 3t51.5 12t43 26t37.5 45q15 24 37.5 63.5t48.5 76.5t55.5 64t59.5 27t56.5 -24t53 -60t56 -77t65.5 -75q23 -21 44 -36.5
t42 -25.5t44 -14.5t50 -4.5h37v-148h-63q-47 0 -93 21.5t-91 66.5q-6 -31 -13.5 -61.5t-18.5 -54.5t-26 -38q-14 -12 -32 -12h-5q-31 4 -66.5 13.5t-75 26.5t-82 43.5t-87.5 64.5q-21 -18 -40.5 -31.5t-39 -22t-40.5 -12.5t-46 -4h-81z" />
    <glyph glyph-name="uniFEE4_uniFE82.liga" unicode="&#xfee4;&#xfe82;" horiz-adv-x="1419" 
d="M568.5 1404.5q-26.5 -25.5 -54 -42.5t-56 -25t-52.5 -8q-35 0 -62 4t-51.5 9.5t-47.5 9.5t-49 4q-30 0 -59 -10.5t-61 -36.5l-58 74q29 32 69 58t90 26q26 0 48.5 -4t45 -8.5t49 -8.5t62.5 -4q51 0 100.5 21.5t96.5 66.5l36 -65q-20 -35 -46.5 -60.5zM1099 156
q-5 18 -16.5 46t-27 54.5t-32 46t-30.5 19.5q-15 0 -31 -15t-30 -37.5t-26 -47.5t-20 -46q31 -31 62.5 -49.5t62.5 -32.5q41 -20 65 -20q11 0 18 4q13 7 13 30q0 19 -8 48zM547 0q-54 0 -101.5 16t-83.5 61t-59 125t-29 208q-3 72 -4 132.5t-2 117.5t-1.5 113.5t-2.5 120
t-6.5 138.5t-11.5 168l133 66q5 -126 7.5 -243.5t3.5 -223.5t2 -197.5t3 -165.5q3 -82 14.5 -137.5t32.5 -89t52 -47.5t73 -14h39q34 0 62 3t51.5 12t43 26t37.5 45q15 24 37.5 63.5t48.5 76.5t55.5 64t59.5 27t56.5 -24t53 -60t56 -77t65.5 -75q23 -21 44 -36.5t42 -25.5
t44 -14.5t50 -4.5h37v-148h-63q-47 0 -93 21.5t-91 66.5q-6 -31 -13.5 -61.5t-18.5 -54.5t-26 -38q-14 -12 -32 -12h-5q-31 4 -66.5 13.5t-75 26.5t-82 43.5t-87.5 64.5q-21 -18 -40.5 -31.5t-39 -22t-40.5 -12.5t-46 -4h-83z" />
    <glyph glyph-name="uniFEE4_uniFE84.liga" unicode="&#xfee4;&#xfe84;" horiz-adv-x="1339" 
d="M36 1288v68l98 41q-28 26 -38.5 45t-10.5 51q0 31 14 58t36 47.5t48 32.5t50 12q31 0 59 -9t57 -30l-22 -58q-29 11 -53.5 14t-42.5 3q-12 0 -26.5 -4.5t-27 -12t-21.5 -17.5t-9 -22q0 -31 33.5 -49t84.5 -18q6 0 22 3.5t37.5 9.5t46.5 13.5t48 14.5v-97zM1019 156
q-5 18 -16.5 46t-27 54.5t-32 46t-30.5 19.5q-15 0 -31 -15t-30 -37.5t-26 -47.5t-20 -46q31 -31 62.5 -49.5t62.5 -32.5q41 -20 65 -20q11 0 18 4q13 7 13 30q0 19 -8 48zM456 0q-54 0 -101.5 16t-83.5 61t-59 125t-29 208q-3 72 -4 132.5t-2 117.5t-1.5 113.5t-2.5 120
t-6.5 138.5t-11.5 168l133 66q5 -126 7.5 -243.5t3.5 -223.5t2 -197.5t3 -165.5q3 -82 14.5 -137.5t32.5 -89t52 -47.5t73 -14h50q34 0 62 3t51.5 12t43 26t37.5 45q15 24 37.5 63.5t48.5 76.5t55.5 64t59.5 27t56.5 -24t53 -60t56 -77t65.5 -75q23 -21 44 -36.5t42 -25.5
t44 -14.5t50 -4.5h37v-148h-63q-47 0 -93 21.5t-91 66.5q-6 -31 -13.5 -61.5t-18.5 -54.5t-26 -38q-14 -12 -32 -12h-5q-31 4 -66.5 13.5t-75 26.5t-82 43.5t-87.5 64.5q-21 -18 -40.5 -31.5t-39 -22t-40.5 -12.5t-46 -4h-94z" />
    <glyph glyph-name="uniFEE4_uniFE88.liga" unicode="&#xfee4;&#xfe88;" horiz-adv-x="1329" 
d="M56 -455v68l98 41q-28 26 -38.5 45t-10.5 51q0 31 14 58t36 47.5t48 32.5t50 12q31 0 59 -9t57 -30l-22 -58q-29 11 -53.5 14t-42.5 3q-12 0 -26.5 -4.5t-27 -12t-21.5 -17.5t-9 -22q0 -31 33.5 -49t84.5 -18q6 0 22 3.5t37.5 9.5t46.5 13.5t48 14.5v-97zM1009 156
q-5 18 -16.5 46t-27 54.5t-32 46t-30.5 19.5q-15 0 -31 -15t-30 -37.5t-26 -47.5t-20 -46q31 -31 62.5 -49.5t62.5 -32.5q41 -20 65 -20q11 0 18 4q13 7 13 30q0 19 -8 48zM456 0q-54 0 -101.5 16t-83.5 61t-59 125t-29 208q-3 72 -4 132.5t-2 117.5t-1.5 113.5t-2.5 120
t-6.5 138.5t-11.5 168l133 66q5 -126 7.5 -243.5t3.5 -223.5t2 -197.5t3 -165.5q3 -82 14.5 -137.5t32.5 -89t52 -47.5t73 -14h40q34 0 62 3t51.5 12t43 26t37.5 45q15 24 37.5 63.5t48.5 76.5t55.5 64t59.5 27t56.5 -24t53 -60t56 -77t65.5 -75q23 -21 44 -36.5t42 -25.5
t44 -14.5t50 -4.5h37v-148h-63q-47 0 -93 21.5t-91 66.5q-6 -31 -13.5 -61.5t-18.5 -54.5t-26 -38q-14 -12 -32 -12h-5q-31 4 -66.5 13.5t-75 26.5t-82 43.5t-87.5 64.5q-21 -18 -40.5 -31.5t-39 -22t-40.5 -12.5t-46 -4h-84z" />
    <glyph glyph-name="uniFEE8_uniFEAE.liga" unicode="&#xfee8;&#xfeae;" horiz-adv-x="1361" 
d="M1027 580l-131 88l96 131l131 -90zM777 0q-25 0 -58 3t-66 19l-17 11q0 -68 -28.5 -132.5t-74.5 -122.5t-104 -108.5t-116.5 -92t-113 -73t-92.5 -49.5l-104 80q55 30 114.5 67.5t117 79t108.5 85.5t90 87t61.5 84t22.5 76q0 48 -23.5 105t-68.5 119l104 106
q21 -29 36 -52.5t35 -48.5q13 -17 28 -32q27 -27 62.5 -45t84.5 -18h81q26 0 58 6.5t59.5 23t46 44.5t18.5 71v61l103 29q1 -78 14.5 -124.5t38 -71t59 -32t76.5 -7.5h62v-148h-86q-31 0 -64 4t-64 16.5t-57.5 36.5t-44.5 64q-15 -32 -40 -54.5t-54.5 -37.5t-60 -22
t-56.5 -7h-87z" />
    <glyph glyph-name="uniFEE7_uniFEE4.liga" unicode="&#xfee7;&#xfee4;" horiz-adv-x="1285" 
d="M519 156q-5 18 -16.5 46t-27 54.5t-32 46t-30.5 19.5q-15 0 -31 -15t-30 -37.5t-26 -47.5t-20 -46q31 -31 62.5 -49.5t62.5 -32.5q41 -20 65 -20q11 0 18 4q13 7 13 30q0 19 -8 48zM806 0q-47 0 -93 21.5t-91 66.5q-6 -31 -13.5 -61.5t-18.5 -54.5t-26 -38
q-14 -12 -32 -12h-5q-31 4 -66.5 13.5t-75 26.5t-82 43.5t-87.5 64.5q-21 -18 -40.5 -31.5t-39 -22t-40.5 -12.5t-46 -4h-80v148h56q34 0 62 3t51.5 12t43 26t37.5 45q15 24 37.5 63.5t48.5 76.5t55.5 64t59.5 27t56.5 -24t53 -60t56 -77t65.5 -75q23 -21 44 -36.5t42 -25.5
t44 -14.5t50 -4.5h80q134 0 164 57q9 16 9 36q0 48 -52 115l-32 45l102 113q21 -23 39 -53t31.5 -64t21.5 -70.5t8 -70.5q0 -25 -4.5 -53.5t-16.5 -57t-32.5 -55t-54 -46.5t-80.5 -32t-111 -12h-98zM1044 696l-132 86l97 131l133 -90z" />
    <glyph glyph-name="uniFEE7_uniFEF0.liga" unicode="&#xfee7;&#xfef0;" horiz-adv-x="1535" 
d="M903 0q-60 0 -99 -8t-48 -19q-2 -3 -2 -7q0 -8 19 -18q26 -14 95 -26q60 -11 106.5 -21t75.5 -32q16 -12 25 -22.5t13.5 -23t5.5 -28t1 -35.5q0 -35 -21.5 -71.5t-59 -71t-90 -65t-114 -53.5t-130.5 -36.5t-140 -13.5q-91 0 -172.5 21.5t-143 70t-98 127.5t-36.5 193
q0 34 6.5 74t18 81t27 81t34.5 75l108 -37q-28 -57 -46.5 -120t-18.5 -121q0 -75 24.5 -130t69 -91t107 -54t137.5 -18q117 0 224 26t193 92q16 13 16 22q0 3 -1 5q-5 11 -21 14q-51 7 -90 13t-70.5 13t-57 15t-48.5 19q-13 6 -23.5 19t-17.5 28t-10.5 31t-3.5 28
q0 59 29.5 101t81.5 69t123 39.5t155 12.5h126q134 0 164 57q9 16 9 36q0 48 -52 115l-32 45l102 113q21 -23 39 -53t31.5 -64t21.5 -70.5t8 -70.5q0 -25 -4.5 -53.5t-16.5 -57t-32.5 -55t-54 -46.5t-80.5 -32t-111 -12h-251zM1294 696l-132 86l97 131l133 -90z" />
    <glyph glyph-name="uniFEE7_uniFEF2.liga" unicode="&#xfee7;&#xfef2;" horiz-adv-x="1535" 
d="M628 -868l-112 84l-80 -99l-121 86l90 113l111 -82l77 96l123 -86zM903 0q-60 0 -99 -8t-48 -19q-2 -3 -2 -7q0 -8 19 -18q26 -14 95 -26q60 -11 106.5 -21t75.5 -32q16 -12 25 -22.5t13.5 -23t5.5 -28t1 -35.5q0 -35 -21.5 -71.5t-59 -71t-90 -65t-114 -53.5
t-130.5 -36.5t-140 -13.5q-91 0 -172.5 21.5t-143 70t-98 127.5t-36.5 193q0 34 6.5 74t18 81t27 81t34.5 75l108 -37q-28 -57 -46.5 -120t-18.5 -121q0 -75 24.5 -130t69 -91t107 -54t137.5 -18q117 0 224 26t193 92q16 13 16 22q0 3 -1 5q-5 11 -21 14q-51 7 -90 13
t-70.5 13t-57 15t-48.5 19q-13 6 -23.5 19t-17.5 28t-10.5 31t-3.5 28q0 59 29.5 101t81.5 69t123 39.5t155 12.5h126q134 0 164 57q9 16 9 36q0 48 -52 115l-32 45l102 113q21 -23 39 -53t31.5 -64t21.5 -70.5t8 -70.5q0 -25 -4.5 -53.5t-16.5 -57t-32.5 -55t-54 -46.5
t-80.5 -32t-111 -12h-251zM1294 696l-132 86l97 131l133 -90z" />
    <glyph glyph-name="uniFEF4_uniFEAE.liga" unicode="&#xfef4;&#xfeae;" horiz-adv-x="1451" 
d="M1128 -385l-113 84l-81 -98l-121 86l92 112l108 -82l80 97l123 -86zM770 0q-23 0 -51 3q-33 3 -66 19l-17 11q0 -68 -28.5 -132.5t-74.5 -122.5t-104 -108.5t-116.5 -92t-113 -73t-92.5 -49.5l-104 80q55 30 114.5 67.5t117 79t108.5 85.5t90 87t61.5 84t22.5 76
q0 48 -23.5 105t-68.5 119l104 106q21 -29 36 -52.5t35 -48.5q13 -17 28 -32q27 -27 62.5 -45t84.5 -18h171q26 0 58 6.5t59.5 23t46 44.5t18.5 71v61l103 29q1 -78 14.5 -124.5t38 -71t59 -32t76.5 -7.5h62v-148h-86q-31 0 -64 4t-64 16.5t-57.5 36.5t-44.5 64
q-15 -32 -40 -54.5t-54.5 -37.5t-60 -22t-56.5 -7h-184z" />
    <glyph glyph-name="uniFEF3_uniFEE4.liga" unicode="&#xfef3;&#xfee4;" horiz-adv-x="1355" 
d="M519 156q-5 18 -16.5 46t-27 54.5t-32 46t-30.5 19.5q-15 0 -31 -15t-30 -37.5t-26 -47.5t-20 -46q31 -31 62.5 -49.5t62.5 -32.5q41 -20 65 -20q11 0 18 4q13 7 13 30q0 19 -8 48zM1175 -385l-113 84l-82 -98l-121 86l92 112l109 -82l80 97l123 -86zM806 0
q-47 0 -93 21.5t-91 66.5q-6 -31 -13.5 -61.5t-18.5 -54.5t-26 -38q-14 -12 -32 -12h-5q-31 4 -66.5 13.5t-75 26.5t-82 43.5t-87.5 64.5q-21 -18 -40.5 -31.5t-39 -22t-40.5 -12.5t-46 -4h-80v148h56q34 0 62 3t51.5 12t43 26t37.5 45q15 24 37.5 63.5t48.5 76.5t55.5 64
t59.5 27t56.5 -24t53 -60t56 -77t65.5 -75q23 -21 44 -36.5t42 -25.5t44 -14.5t50 -4.5h150q134 0 164 57q9 16 9 36q0 48 -52 115l-32 45l102 113q21 -23 39 -53t31.5 -64t21.5 -70.5t8 -70.5q0 -25 -4.5 -53.5t-16.5 -57t-32.5 -55t-54 -46.5t-80.5 -32t-111 -12h-168z
" />
    <glyph glyph-name="uniFEF4_uniFEE6.liga" unicode="&#xfef4;&#xfee6;" horiz-adv-x="1801" 
d="M558 352l-123 82l92 125l125 -86zM1120 0q-30 1 -52 9q-27 9 -55 38q1 -23 1 -45q0 -98 -29 -178q-36 -99 -104.5 -167t-163.5 -104t-206 -36q-103 0 -180.5 32.5t-130 88t-79 129.5t-26.5 157q0 28 6.5 65t17.5 77t27 79t35 72l95 -35q-13 -21 -24.5 -51t-20.5 -62
t-14 -63t-5 -53q0 -68 19 -123t58 -93.5t100 -59.5t145 -21q88 0 157 25.5t117 68t73 97.5t25 114q0 75 -26 151t-64 138l111 94q18 -36 37 -72t43 -65.5t51 -44.5q24 -14 58 -14h180q26 0 58 6.5t59.5 23t46 44.5t18.5 71v61l103 29q1 -78 14.5 -124.5t38 -71t59 -32
t76.5 -7.5h62v-148h-86q-31 0 -64 4t-64 16.5t-57.5 36.5t-44.5 64q-15 -32 -40 -54.5t-54.5 -37.5t-60 -22t-56.5 -7h-184zM1478 -385l-113 84l-81 -98l-121 86l92 112l108 -82l80 97l123 -86z" />
    <glyph glyph-name="T_h.liga" unicode="Th" horiz-adv-x="1877" 
d="M949 1066h-376v-1066h-175v1066h-379v154h1094v-456h3q46 72 119 110t168 38q172 0 253 -101t81 -281v-530h-164v462q0 156 -40 233q-40 78 -149 84q-71 0 -122 -27t-84.5 -75.5t-49 -116t-15.5 -148.5v-412h-164v1066z" />
    <glyph glyph-name="f_b.liga" unicode="fb" horiz-adv-x="1767" 
d="M246 759h-210v132h210v83q0 81 12.5 147t45 113t90.5 72.5t151 25.5q31 0 58 -4t52 -7l-7 -132q-15 5 -36.5 7.5t-42.5 2.5q-53 0 -84.5 -16t-48 -44.5t-21.5 -67t-5 -84.5v-96h236v-132h-236v-759h-164v759zM1511 449q2 60 -11 119t-42.5 106t-76.5 76t-114 29
t-116.5 -28.5t-82.5 -76t-49 -107.5t-16 -123q0 -56 15 -114.5t46.5 -107t81.5 -79.5t120 -31q65 0 112 32.5t77.5 83t43.5 109.5t12 112zM839 1311h164v-542h3q40 60 109 102q70 41 187 41q97 0 169 -36.5t120 -99t71.5 -144t23.5 -170.5q0 -93 -21.5 -180t-68 -154
t-119 -107.5t-173.5 -41.5q-61 0 -109.5 14t-86.5 35t-65 47.5t-44 49.5h-3v-125h-157v1311z" />
    <glyph glyph-name="f_f_b.liga" unicode="ffb" horiz-adv-x="2357" 
d="M410 759v-759h-164v759h-210v132h210v83q0 81 12.5 147t45 113t90.5 72.5t151 25.5q31 0 58 -4t52 -7l-7 -132q-15 5 -36.5 7.5t-42.5 2.5q-53 0 -84.5 -16t-48 -44.5t-21.5 -67t-5 -84.5v-96h426v83q0 81 12.5 147t45 113t90.5 72.5t151 25.5q31 0 58 -4t52 -7l-7 -132
q-15 5 -36.5 7.5t-42.5 2.5q-53 0 -84.5 -16t-48 -44.5t-21.5 -67t-5 -84.5v-96h236v-132h-236v-759h-164v759h-426zM2101 449q2 60 -11 119t-42.5 106t-76.5 76t-114 29t-116.5 -28.5t-82.5 -76t-49 -107.5t-16 -123q0 -56 15 -114.5t46.5 -107t81.5 -79.5t120 -31
q65 0 112 32.5t77.5 83t43.5 109.5t12 112zM1429 1311h164v-542h3q40 60 109 102q70 41 187 41q97 0 169 -36.5t120 -99t71.5 -144t23.5 -170.5q0 -93 -21.5 -180t-68 -154t-119 -107.5t-173.5 -41.5q-61 0 -109.5 14t-86.5 35t-65 47.5t-44 49.5h-3v-125h-157v1311z" />
    <glyph glyph-name="f_f.liga" unicode="ff" horiz-adv-x="1270" 
d="M410 759v-759h-164v759h-210v132h210v83q0 81 12.5 147t45 113t90.5 72.5t151 25.5q31 0 58 -4t52 -7l-7 -132q-15 5 -36.5 7.5t-42.5 2.5q-53 0 -84.5 -16t-48 -44.5t-21.5 -67t-5 -84.5v-96h426v83q0 81 12.5 147t45 113t90.5 72.5t151 25.5q31 0 58 -4t52 -7l-7 -132
q-15 5 -36.5 7.5t-42.5 2.5q-53 0 -84.5 -16t-48 -44.5t-21.5 -67t-5 -84.5v-96h236v-132h-236v-759h-164v759h-426z" />
    <glyph glyph-name="f_h.liga" unicode="fh" horiz-adv-x="1767" 
d="M246 759h-210v132h210v83q0 81 12.5 147t45 113t90.5 72.5t151 25.5q31 0 58 -4t52 -7l-7 -132q-15 5 -36.5 7.5t-42.5 2.5q-53 0 -84.5 -16t-48 -44.5t-21.5 -67t-5 -84.5v-96h236v-132h-236v-759h-164v759zM839 1311h164v-547h3q46 72 119 110t168 38q172 0 253 -101
t81 -281v-530h-164v462q0 156 -40 233q-40 78 -149 84q-71 0 -122 -27t-84.5 -75.5t-49 -116t-15.5 -148.5v-412h-164v1311z" />
    <glyph glyph-name="f_f_h.liga" unicode="ffh" horiz-adv-x="2357" 
d="M410 759v-759h-164v759h-210v132h210v83q0 81 12.5 147t45 113t90.5 72.5t151 25.5q31 0 58 -4t52 -7l-7 -132q-15 5 -36.5 7.5t-42.5 2.5q-53 0 -84.5 -16t-48 -44.5t-21.5 -67t-5 -84.5v-96h426v83q0 81 12.5 147t45 113t90.5 72.5t151 25.5q31 0 58 -4t52 -7l-7 -132
q-15 5 -36.5 7.5t-42.5 2.5q-53 0 -84.5 -16t-48 -44.5t-21.5 -67t-5 -84.5v-96h236v-132h-236v-759h-164v759h-426zM1429 1311h164v-547h3q46 72 119 110t168 38q172 0 253 -101t81 -281v-530h-164v462q0 156 -40 233q-40 78 -149 84q-71 0 -122 -27t-84.5 -75.5t-49 -116
t-15.5 -148.5v-412h-164v1311z" />
    <glyph glyph-name="f_f_i.liga" unicode="ffi" horiz-adv-x="1755" 
d="M410 759v-759h-164v759h-210v132h210v83q0 81 12.5 147t45 113t90.5 72.5t151 25.5q31 0 58 -4t52 -7l-7 -132q-15 5 -36.5 7.5t-42.5 2.5q-53 0 -84.5 -16t-48 -44.5t-21.5 -67t-5 -84.5v-96h426v83q0 81 12.5 147t45 113t90.5 72.5t151 25.5q31 0 58 -4t52 -7l-7 -132
q-15 5 -36.5 7.5t-42.5 2.5q-53 0 -84.5 -16t-48 -44.5t-21.5 -67t-5 -84.5v-96h236v-132h-236v-759h-164v759h-426zM1605 1091h-185v185h185v-185zM1430 891h165v-891h-165v891z" />
    <glyph glyph-name="f_j.liga" unicode="fj" horiz-adv-x="1165" 
d="M246 759h-210v132h210v83q0 81 12.5 147t45 113t90.5 72.5t151 25.5q31 0 58 -4t52 -7l-7 -132q-15 5 -36.5 7.5t-42.5 2.5q-53 0 -84.5 -16t-48 -44.5t-21.5 -67t-5 -84.5v-96h236v-132h-236v-759h-164v759zM1015 1091h-185v185h185v-185zM656 -240q17 -3 30 -4t37 -1
q58 0 87.5 51t29.5 138v947h165v-923q0 -24 -1.5 -51.5t-3.5 -58.5q-1 -30 -9 -59t-20 -57q-24 -55 -75 -93q-50 -37 -143 -37q-27 0 -55.5 1.5t-46.5 5.5z" />
    <glyph glyph-name="f_f_j.liga" unicode="ffj" horiz-adv-x="1755" 
d="M410 759v-759h-164v759h-210v132h210v83q0 81 12.5 147t45 113t90.5 72.5t151 25.5q31 0 58 -4t52 -7l-7 -132q-15 5 -36.5 7.5t-42.5 2.5q-53 0 -84.5 -16t-48 -44.5t-21.5 -67t-5 -84.5v-96h426v83q0 81 12.5 147t45 113t90.5 72.5t151 25.5q31 0 58 -4t52 -7l-7 -132
q-15 5 -36.5 7.5t-42.5 2.5q-53 0 -84.5 -16t-48 -44.5t-21.5 -67t-5 -84.5v-96h236v-132h-236v-759h-164v759h-426zM1605 1091h-185v185h185v-185zM1246 -240q17 -3 30 -4t37 -1q58 0 87.5 51t29.5 138v947h165v-923q0 -24 -1.5 -51.5t-3.5 -58.5q-1 -30 -9 -59t-20 -57
q-24 -55 -75 -93q-50 -37 -143 -37q-27 0 -55.5 1.5t-46.5 5.5z" />
    <glyph glyph-name="f_k.liga" unicode="fk" horiz-adv-x="1671" 
d="M246 759h-210v132h210v83q0 81 12.5 147t45 113t90.5 72.5t151 25.5q31 0 58 -4t52 -7l-7 -132q-15 5 -36.5 7.5t-42.5 2.5q-53 0 -84.5 -16t-48 -44.5t-21.5 -67t-5 -84.5v-96h236v-132h-236v-759h-164v759zM839 1311h164v-781l358 361h224l-414 -394l467 -497h-237
l-398 458v-458h-164v1311z" />
    <glyph glyph-name="f_f_k.liga" unicode="ffk" horiz-adv-x="2261" 
d="M410 759v-759h-164v759h-210v132h210v83q0 81 12.5 147t45 113t90.5 72.5t151 25.5q31 0 58 -4t52 -7l-7 -132q-15 5 -36.5 7.5t-42.5 2.5q-53 0 -84.5 -16t-48 -44.5t-21.5 -67t-5 -84.5v-96h426v83q0 81 12.5 147t45 113t90.5 72.5t151 25.5q31 0 58 -4t52 -7l-7 -132
q-15 5 -36.5 7.5t-42.5 2.5q-53 0 -84.5 -16t-48 -44.5t-21.5 -67t-5 -84.5v-96h236v-132h-236v-759h-164v759h-426zM1429 1311h164v-781l358 361h224l-414 -394l467 -497h-237l-398 458v-458h-164v1311z" />
    <glyph glyph-name="f_f_l.liga" unicode="ffl" horiz-adv-x="1755" 
d="M410 759v-759h-164v759h-210v132h210v83q0 81 12.5 147t45 113t90.5 72.5t151 25.5q31 0 58 -4t52 -7l-7 -132q-15 5 -36.5 7.5t-42.5 2.5q-53 0 -84.5 -16t-48 -44.5t-21.5 -67t-5 -84.5v-96h426v83q0 81 12.5 147t45 113t90.5 72.5t151 25.5q31 0 58 -4t52 -7l-7 -132
q-15 5 -36.5 7.5t-42.5 2.5q-53 0 -84.5 -16t-48 -44.5t-21.5 -67t-5 -84.5v-96h236v-132h-236v-759h-164v759h-426zM1430 1311h165v-1311h-165v1311z" />
    <glyph glyph-name="f_t.liga" unicode="ft" horiz-adv-x="1310" 
d="M410 759v-759h-164v759h-210v132h210v83q0 81 12.5 147t45 113t90.5 72.5t151 25.5q31 0 58 -4t52 -7l-7 -132q-15 5 -36.5 7.5t-42.5 2.5q-53 0 -84.5 -16t-48 -44.5t-21.5 -67t-5 -84.5v-96h432v206l164 53v-259h237v-132h-237v-488q0 -80 41 -119q43 -40 97 -40
q39 0 66 9.5t46 21.5v-140q-28 -8 -63.5 -16t-76.5 -8q-128 0 -200 62q-74 63 -74 197v521h-432z" />
    <glyph glyph-name="f_f_t.liga" unicode="fft" horiz-adv-x="1900" 
d="M1000 759v-759h-164v759h-426v-759h-164v759h-210v132h210v83q0 81 12.5 147t45 113t90.5 72.5t151 25.5q31 0 58 -4t52 -7l-7 -132q-15 5 -36.5 7.5t-42.5 2.5q-53 0 -84.5 -16t-48 -44.5t-21.5 -67t-5 -84.5v-96h426v83q0 81 12.5 147t45 113t90.5 72.5t151 25.5
q31 0 58 -4t52 -7l-7 -132q-15 5 -36.5 7.5t-42.5 2.5q-53 0 -84.5 -16t-48 -44.5t-21.5 -67t-5 -84.5v-96h432v206l164 53v-259h237v-132h-237v-488q0 -80 41 -119q43 -40 97 -40q39 0 66 9.5t46 21.5v-140q-28 -8 -63.5 -16t-76.5 -8q-128 0 -200 62q-74 63 -74 197v521
h-432z" />
    <glyph glyph-name="uni0647.fina" unicode="&#x647;" horiz-adv-x="932" arabic-form="final" 
d="M561 291q0 38 -10 68.5t-23.5 51.5t-26.5 32.5t-20 11.5t-23 -21t-32.5 -59.5t-31.5 -108.5q-11 -53 -11 -123q0 -23 1 -48q34 20 54 34.5t41.5 30.5t42.5 36t30 45t9 50zM418 -21q17 -46 50 -87q40 -52 87 -87q-6 24 -6 49q0 30 9 63q15 60 55.5 111.5t102.5 85.5
t142 34h104v-148h-67q-69 0 -119 -16.5t-81.5 -42.5t-43.5 -59q-9 -23 -9 -46q0 -10 2 -20q5 -33 28.5 -63.5t64.5 -51.5l-43 -135q-95 30 -163.5 72.5t-117 97.5t-79.5 121q-11 23 -20 47q-39 -27 -76 -48q-55 -32 -93 -50l-104 80q55 30 114.5 67.5t124.5 84.5
q-10 70 -10 127q0 48 7 87q15 85 34.5 139.5t43.5 99.5t48.5 77.5t47 50.5t38.5 18q20 0 50 -27t58 -71t48 -99t20 -112q0 -64 -19 -119t-60.5 -104.5t-96.5 -82.5q-26 -18 -71 -43z" />
    <glyph glyph-name="uni0672.fina" unicode="&#x672;" horiz-adv-x="507" 
d="M476 0q-54 0 -101.5 16t-83.5 61t-59 125t-29 208q-3 71 -4 131.5t-2 117.5t-1.5 113.5t-2.5 120.5t-6.5 139t-11.5 168l131 66q6 -126 8.5 -243.5t4 -223.5t2.5 -197.5t3 -165.5q3 -82 14 -137.5t32 -89t52 -47.5t74 -14h41v-148h-61zM415.5 1357q-30.5 -16 -67.5 -24
q-32 -8 -60 -8q-5 0 -10 1q-33 1 -56.5 6.5t-38.5 11.5t-36 8q-24 -2 -34 -6t-19.5 -9.5t-18.5 -11t-13 -8.5l-38 45q21 24 43.5 37t43.5 18q14 3 27 3h14q18 -3 26.5 -5t41 -8.5t62.5 -7.5q-20 19 -27 33q-8 14 -8 38q0 23 9.5 43t26 35.5t36 24.5t38.5 9q22 0 42 -6.5
t41 -22.5l-17 -43q-20 8 -38.5 10t-30.5 2q-9 0 -20 -3t-20 -9t-15.5 -13.5t-6.5 -16.5q0 -23 25 -36.5t62 -13.5q3 0 15 3t28 7.5t34 10t35 10.5v-72q-45 -16 -75.5 -32z" />
    <glyph glyph-name="uni0673.fina" unicode="&#x673;" horiz-adv-x="507" 
d="M476 0q-54 0 -101.5 16t-83.5 61t-59 125t-29 208q-3 71 -4 131.5t-2 117.5t-1.5 113.5t-2.5 120.5t-6.5 139t-11.5 168l131 66q6 -126 8.5 -243.5t4 -223.5t2.5 -197.5t3 -165.5q3 -82 14 -137.5t32 -89t52 -47.5t74 -14h41v-148h-61zM415.5 -325q-30.5 -16 -67.5 -24
q-32 -8 -60 -8q-5 0 -10 1q-33 1 -56.5 6.5t-38.5 11.5t-36 8q-24 -2 -34 -6t-19.5 -9.5t-18.5 -11t-13 -8.5l-38 45q21 24 43.5 37t43.5 18q14 3 27 3h14q18 -3 26.5 -5t41 -8.5t62.5 -7.5q-20 19 -27 33q-8 14 -8 38q0 23 9.5 43t26 35.5t36 24.5t38.5 9q22 0 42 -6.5
t41 -22.5l-17 -43q-20 8 -38.5 10t-30.5 2q-9 0 -20 -3t-20 -9t-15.5 -13.5t-6.5 -16.5q0 -23 25 -36.5t62 -13.5q3 0 15 3t28 7.5t34 10t35 10.5v-72q-45 -16 -75.5 -32z" />
    <glyph glyph-name="uni0675.fina" unicode="&#x675;" horiz-adv-x="700" 
d="M389 0q-54 0 -101.5 16t-83.5 61t-59 125t-29 208q-3 72 -4 132.5t-2 117.5t-1.5 113.5t-2.5 120t-6.5 138.5t-11.5 168l133 66q5 -126 7.5 -243.5t3.5 -223.5t2 -197.5t3 -165.5q3 -82 14.5 -137.5t32.5 -89t52 -47.5t73 -14h321v-148h-341zM296 1212v68l98 41
q-28 26 -38.5 45t-10.5 51q0 31 14 58t36 47.5t48 32.5t50 12q31 0 59 -9t57 -30l-22 -58q-29 11 -53.5 14t-42.5 3q-12 0 -26.5 -4.5t-27 -12t-21.5 -17.5t-9 -22q0 -31 33.5 -49t84.5 -18q6 0 22 3.5t37.5 9.5t46.5 13.5t48 14.5v-97z" />
    <glyph glyph-name="uni0676.fina" unicode="&#x676;" horiz-adv-x="840" 
d="M514 148q-2 55 -12.5 86.5t-26.5 52.5t-35 31.5t-38 10.5q-17 0 -33 -10.5t-28.5 -27.5t-20 -37.5t-7.5 -40.5q0 -19 8 -31t21.5 -19t31.5 -10t38 -4q32 -2 62 -2q20 0 40 1zM406 1q-67 1 -92 6q-36 8 -65 28t-46.5 53t-17.5 81q0 49 15.5 104.5t43 103t66.5 78.5t86 31
q44 0 79 -18t61.5 -47.5t46 -68t31.5 -80t18 -83.5q2 -21 4 -41h234v-148h-241q-4 -29 -11 -54q-20 -70 -54 -123t-68 -87.5t-79.5 -74.5t-104 -81.5t-113 -73t-92.5 -49.5l-104 80q55 30 114.5 67.5t117 79t108.5 85.5t81 76.5t61 82.5q21 33 29 72zM413 591v68l99 41
q-28 26 -39 45t-11 51q0 31 14 58t36 47.5t48.5 32.5t51.5 12q31 0 59 -9t56 -30l-23 -58q-29 11 -53.5 14t-42.5 3q-12 0 -26.5 -4.5t-27 -12t-21.5 -17.5t-9 -22q0 -31 34 -49t85 -18q5 0 21 3.5t38 9.5t46.5 13.5t47.5 14.5v-97z" />
    <glyph glyph-name="uni0677.fina" unicode="&#x677;" horiz-adv-x="920" 
d="M514 148q-2 55 -12.5 86.5t-26.5 52.5t-35 31.5t-38 10.5q-17 0 -33 -10.5t-28.5 -27.5t-20 -37.5t-7.5 -40.5q0 -19 8 -31t21.5 -19t31.5 -10t38 -4q32 -2 62 -2q20 0 40 1zM406 1q-67 1 -92 6q-36 8 -65 28t-46.5 53t-17.5 81q0 49 15.5 104.5t43 103t66.5 78.5t86 31
q44 0 79 -18t61.5 -47.5t46 -68t31.5 -80t18 -83.5q2 -21 4 -41h314v-148h-321q-4 -29 -11 -54q-20 -70 -54 -123t-68 -87.5t-79.5 -74.5t-104 -81.5t-113 -73t-92.5 -49.5l-104 80q55 30 114.5 67.5t117 79t108.5 85.5t81 76.5t61 82.5q21 33 29 72zM523 591v68l99 41
q-28 26 -39 45t-11 51q0 31 14 58t36 47.5t48.5 32.5t51.5 12q31 0 59 -9t56 -30l-23 -58q-29 11 -53.5 14t-42.5 3q-12 0 -26.5 -4.5t-27 -12t-21.5 -17.5t-9 -22q0 -31 34 -49t85 -18q5 0 21 3.5t38 9.5t46.5 13.5t47.5 14.5v-97zM508 854q0 -15 -2 -33t-10.5 -39
t-26 -44.5t-48.5 -47.5l56 -40l-42 -44q-16 10 -30 22.5t-30 29.5q-15 -11 -40 -26t-58.5 -31t-75 -31t-89.5 -25l-26 58q26 8 57 18.5t60.5 23t58 29t54.5 33.5q-20 27 -29 44.5t-9 35.5q0 27 12 55t31 50.5t42 37t45 14.5q25 0 44 -8.5t31 -22t18.5 -29.5t6.5 -30z
M443 827q0 23 -11 36t-42 13q-12 0 -23.5 -7.5t-21 -19t-15 -25t-5.5 -23.5q0 -18 15.5 -36t34.5 -28q33 22 50.5 41.5t17.5 48.5z" />
    <glyph glyph-name="uni0678.init" unicode="&#x678;" horiz-adv-x="685" 
d="M270 657v68l100 41q-28 26 -39.5 45.5t-11.5 50.5t14 58.5t36 48t48.5 32t51.5 11.5q31 0 58.5 -8t55.5 -31l-22 -55q-28 9 -52 11.5t-44 2.5q-11 0 -25.5 -4t-27.5 -11t-22 -17t-9 -21q0 -31 33.5 -50.5t84.5 -19.5q6 0 22 4t37.5 10t47 13t49.5 14v-94zM383 256
q0 -25 -4.5 -53.5t-16.5 -57t-32.5 -55t-54 -46.5t-80.5 -32t-111 -12h-114v148h122q134 0 164 57q9 16 9 36q0 48 -52 115l-32 45l102 113q21 -23 39 -53t31.5 -64t21.5 -70.5t8 -70.5z" />
    <glyph glyph-name="uni0678.medi" unicode="&#x678;" horiz-adv-x="701" 
d="M303 573v68l98 41q-14 13 -23.5 24t-15 22t-8 23t-2.5 27q0 31 14 58.5t36 48t48 32t50 11.5q31 0 59 -8t57 -31l-22 -55q-29 9 -53.5 11.5t-42.5 2.5q-12 0 -26.5 -4t-27 -11t-21.5 -17t-9 -21q0 -31 33 -50.5t85 -19.5q6 0 22 4t37.5 10t46.5 13t48 14v-94zM505 0
q-31 0 -64 4t-64 16.5t-57.5 36.5t-44.5 64q-15 -32 -40 -54.5t-54.5 -37.5t-60 -22t-56.5 -7h-94v148h86q26 0 58 6.5t59.5 23t46 44.5t18.5 71v61l103 29q1 -78 14.5 -124.5t38 -71t59 -32t76.5 -7.5h202v-148h-226z" />
    <glyph glyph-name="uni0678.fina" unicode="&#x678;" horiz-adv-x="1282" 
d="M903 0q-60 0 -99 -8t-48 -19q-2 -3 -2 -7q0 -8 19 -18q26 -14 95 -26q60 -11 106.5 -21t75.5 -32q16 -12 25 -22.5t13.5 -23t5.5 -28t1 -35.5q0 -35 -21.5 -71.5t-59 -71t-90 -65t-114 -53.5t-130.5 -36.5t-140 -13.5q-91 0 -172.5 21.5t-143 70t-98 127.5t-36.5 193
q0 34 6.5 74t18 81t27 81t34.5 75l108 -37q-28 -57 -46.5 -120t-18.5 -121q0 -75 24.5 -130t69 -91t107 -54t137.5 -18q117 0 224 26t193 92q16 13 16 22q0 3 -1 5q-5 11 -21 14q-51 7 -90 13t-70.5 13t-57 15t-48.5 19q-13 6 -23.5 19t-17.5 28t-10.5 31t-3.5 28
q0 59 29.5 101t81.5 69t123 39.5t155 12.5h276v-148h-409zM866 330v67l98 41q-27 26 -38 46t-11 51t14 58.5t36 47.5t48.5 31.5t51.5 11.5q31 0 59 -8t56 -31l-23 -55q-29 9 -53.5 11.5t-42.5 2.5q-12 0 -26.5 -4t-27 -11t-21.5 -16.5t-9 -21.5q0 -31 34 -50.5t85 -19.5
q5 0 21 4t38 10t46.5 13t47.5 14v-94z" />
    <glyph glyph-name="uni067C.init" unicode="&#x67c;" horiz-adv-x="495" 
d="M317 682l-115 84l-80 -100l-121 86l91 112l110 -82l78 97l123 -86zM247 -111q0 19 -11.5 37t-27.5 34.5t-34 30t-31 20.5q-56 -87 -56 -114q0 -33 19 -51.5t58 -18.5q12 0 26.5 3.5t26.5 11t21 19.5t9 28zM70 0h-100v148h152q134 0 164 57q9 16 9 36q0 48 -52 115l-32 45
l102 113q21 -23 39 -53t31.5 -64t21.5 -70.5t8 -70.5q0 -25 -4.5 -53.5t-16.5 -57t-32.5 -55t-53.5 -46.5q-19 -11 -42 -20q3 -4 7 -7q25 -30 39.5 -61.5t14.5 -64.5q0 -42 -16 -71t-40 -47.5t-54.5 -27t-58.5 -8.5q-33 0 -58.5 10t-43 27t-26.5 39t-9 46q0 27 4.5 47.5
t14 40t24.5 41.5q4 5 8 12z" />
    <glyph glyph-name="uni067C.medi" unicode="&#x67c;" horiz-adv-x="601" 
d="M316 619l-113 84l-82 -101l-120 86l92 113l108 -82l80 96l123 -86zM247 -111q0 19 -11.5 37t-27.5 34.5t-34 30t-31 20.5q-56 -87 -56 -114q0 -33 19 -51.5t58 -18.5q12 0 26.5 3.5t26.5 11t21 19.5t9 28zM70 0h-100v148h128q25 0 57 6.5t59.5 23t46.5 44.5t19 71v61
l103 29q1 -78 14.5 -124.5t37.5 -71t58 -32t76 -7.5h62v-148h-84q-32 0 -65 4t-64 16.5t-58 36.5t-45 64q-15 -32 -40 -54q-14 -13 -30 -24q14 -13 26 -26q25 -30 39.5 -61.5t14.5 -64.5q0 -42 -16 -71t-40 -47.5t-54.5 -27t-58.5 -8.5q-33 0 -58.5 10t-43 27t-26.5 39
t-9 46q0 27 4.5 47.5t14 40t24.5 41.5q4 5 8 12z" />
    <glyph glyph-name="uni067C.fina" unicode="&#x67c;" horiz-adv-x="1647" 
d="M888 588l-113 84l-82 -101l-120 86l92 113l108 -82l80 96l123 -86zM897 -151q0 19 -11.5 37t-27.5 34.5t-34 30t-31 20.5q-56 -87 -56 -114q0 -33 19 -51.5t58 -18.5q12 0 26.5 3.5t26.5 11t21 19.5t9 28zM719 -42q-43 -1 -87 -1q-131 0 -230.5 13.5t-166.5 47.5
t-101 91.5t-34 144.5q0 23 4.5 48.5t13 50.5t19.5 48t24 41l94 -28q-18 -31 -28.5 -67t-10.5 -64q0 -42 16.5 -74t60.5 -54.5t122 -34t201 -11.5h49q91 0 178 5.5t165 16t145 26.5t117 37t81 48t37 59l10 55l82 27q0 -64 8 -108.5t26.5 -72.5t48.5 -41t75 -13h39v-148h-64
q-36 0 -69.5 8t-61.5 25.5t-47.5 46t-28.5 70.5q-46 -55 -127.5 -92t-184.5 -59q-80 -18 -169 -27q22 -28 36 -56q14 -32 14 -65q0 -42 -16 -71t-40 -47.5t-54.5 -27t-58.5 -8.5q-33 0 -58.5 10t-43 27t-26.5 39t-9 46q0 27 4.5 47.5t14 40t24.5 41.5q3 5 7 10z" />
    <glyph glyph-name="uni067D.init" unicode="&#x67d;" horiz-adv-x="475" 
d="M393 256q0 -25 -4.5 -53.5t-16.5 -57t-32.5 -55t-54 -46.5t-80.5 -32t-111 -12h-124v148h132q134 0 164 57q9 16 9 36q0 48 -52 115l-32 45l102 113q21 -23 39 -53t31.5 -64t21.5 -70.5t8 -70.5zM201 835l109 -80l-74 -94l-106 77zM78 1017l109 -80l76 94l110 -78
l-82 -100l-106 78l-74 -92l-110 78z" />
    <glyph glyph-name="uni067D.medi" unicode="&#x67d;" horiz-adv-x="581" 
d="M525 0q-31 0 -64 4t-64 16.5t-57.5 36.5t-44.5 64q-15 -32 -40 -54.5t-54.5 -37.5t-60 -22t-56.5 -7h-114v148h106q26 0 58 6.5t59.5 23t46 44.5t18.5 71v61l103 29q1 -78 14.5 -124.5t38 -71t59 -32t76.5 -7.5h62v-148h-86zM210 795l109 -80l-74 -94l-106 77zM87 977
l109 -80l76 94l110 -78l-82 -100l-106 78l-74 -92l-110 78z" />
    <glyph glyph-name="uni067D.fina" unicode="&#x67d;" horiz-adv-x="1647" 
d="M1613 0q-36 0 -69.5 8t-61.5 25.5t-47.5 46t-28.5 70.5q-46 -55 -127.5 -92t-185 -59.5t-222 -32t-239.5 -9.5q-131 0 -230.5 13.5t-166.5 47.5t-101 91.5t-34 144.5q0 23 4.5 48.5t13 50.5t19.5 48t24 41l94 -28q-18 -31 -28.5 -67t-10.5 -64q0 -42 16.5 -74t60.5 -54.5
t122 -34t201 -11.5h49q91 0 178 5.5t165 16t145 26.5t117 37t81 48t37 59l10 55l82 27q0 -64 8 -108.5t26.5 -72.5t48.5 -41t75 -13h39v-148h-64zM738 738l109 -80l-74 -94l-106 77zM615 920l109 -80l76 94l110 -78l-82 -100l-106 78l-74 -92l-110 78z" />
    <glyph glyph-name="uni0681.init" unicode="&#x681;" horiz-adv-x="1012" 
d="M921 274q-75 -1 -133.5 -13t-106 -31.5t-88 -44t-80 -50t-81.5 -50t-92.5 -43.5t-113.5 -30.5t-145 -11.5h-111v148h119q75 0 129.5 8t96.5 22t77 32.5t70.5 39t77.5 42t98 42.5q-42 10 -88 29.5t-88.5 39.5t-79.5 35t-62 15q-20 0 -39 -8.5t-36 -21t-32.5 -27
t-27.5 -25.5l-84 49q15 25 39 55.5t52.5 57.5t58.5 45t57 18q46 0 88.5 -14t87.5 -34.5t93.5 -44.5t105 -43.5t123.5 -31.5q54 -11 118 -11q15 0 31 1zM334 727v65l98 41q-14 14 -23 25t-15 22t-8.5 23.5t-2.5 28.5q0 30 14 57t36 47t48.5 31.5t51.5 11.5q31 0 59 -7.5
t56 -29.5l-23 -57q-29 9 -53.5 11.5t-42.5 2.5q-12 0 -26.5 -4t-27 -11t-21.5 -16.5t-9 -21.5q0 -31 34 -50.5t85 -19.5q5 0 21 4t38 10.5t46.5 14t47.5 14.5v-96z" />
    <glyph glyph-name="uni0681.medi" unicode="&#x681;" horiz-adv-x="1101" 
d="M972 0q-52 0 -89 12t-62.5 32t-41.5 45t-25.5 51t-15.5 51t-12 45q-59 -26 -110.5 -53.5t-99.5 -53.5t-94.5 -49.5t-97 -41t-107.5 -28t-124 -10.5h-123v148h119q64 0 117 7.5t99 20.5t88 31t85 38.5t89 43.5t100 47q-59 12 -112.5 33t-99.5 42t-83 36.5t-62 15.5
q-20 0 -37.5 -8t-32.5 -20t-27.5 -26t-21.5 -26l-90 47q15 27 36 59.5t46.5 60.5t54.5 47t60 19q45 0 89.5 -15t93 -37t102.5 -47t118.5 -45.5t142.5 -31.5q51 -8 110 -8q30 0 63 2l-33 -139q-66 0 -111.5 -9.5t-74.5 -23.5q9 -35 26 -57t43.5 -34.5t62 -17.5t81.5 -5h120
v-148h-159zM334 727v65l98 41q-14 14 -23 25t-15 22t-8.5 23.5t-2.5 28.5q0 30 14 57t36 47t48.5 31.5t51.5 11.5q31 0 59 -7.5t56 -29.5l-23 -57q-29 9 -53.5 11.5t-42.5 2.5q-12 0 -26.5 -4t-27 -11t-21.5 -16.5t-9 -21.5q0 -31 34 -50.5t85 -19.5q5 0 21 4t38 10.5
t46.5 14t47.5 14.5v-96z" />
    <glyph glyph-name="uni0681.fina" unicode="&#x681;" horiz-adv-x="1088" 
d="M1126 -704q-96 -32 -199 -50t-215 -18q-129 0 -244 25t-202 82t-137.5 150t-50.5 230q0 79 23.5 149.5t63.5 132.5t93 114.5t112.5 95.5t122 75.5t121.5 55.5q-69 20 -126 36q-24 7 -48.5 13.5t-45.5 11.5t-37 8t-23 3q-22 0 -40 -9t-33.5 -23.5t-27.5 -31.5t-22 -33
l-97 43q9 21 28 55.5t45 67t59.5 56.5t72.5 24q45 0 91.5 -11t97 -27t106 -33t119.5 -30t138 -18q26 -2 54 -2q50 0 105 6l-37 -149q-22 -1 -49.5 -2.5t-55.5 -5t-53 -8.5t-43 -13q6 -41 24 -64.5t47 -35.5t67.5 -15t85.5 -3h102v-148h-141q-45 0 -80 10.5t-62 28t-46 40
t-32 46.5q-31 55 -40 125q-112 -38 -206 -93t-161.5 -122.5t-105 -146t-37.5 -162.5q0 -80 31.5 -145t98 -110.5t169.5 -70.5t245 -25q106 0 185.5 11.5t148.5 36.5zM314 727v65l98 41q-14 14 -23 25t-15 22t-8.5 23.5t-2.5 28.5q0 30 14 57t36 47t48.5 31.5t51.5 11.5
q31 0 59 -7.5t56 -29.5l-23 -57q-29 9 -53.5 11.5t-42.5 2.5q-12 0 -26.5 -4t-27 -11t-21.5 -16.5t-9 -21.5q0 -31 34 -50.5t85 -19.5q5 0 21 4t38 10.5t46.5 14t47.5 14.5v-96z" />
    <glyph glyph-name="uni0682.init" unicode="&#x682;" horiz-adv-x="1012" 
d="M921 274q-75 -1 -133.5 -13t-106 -31.5t-88 -44t-80 -50t-81.5 -50t-92.5 -43.5t-113.5 -30.5t-145 -11.5h-111v148h119q75 0 129.5 8t96.5 22t77 32.5t70.5 39t77.5 42t98 42.5q-42 10 -88 29.5t-88.5 39.5t-79.5 35t-62 15q-20 0 -39 -8.5t-36 -21t-32.5 -27
t-27.5 -25.5l-84 49q15 25 39 55.5t52.5 57.5t58.5 45t57 18q46 0 88.5 -14t87.5 -34.5t93.5 -44.5t105 -43.5t123.5 -31.5q54 -11 118 -11q15 0 31 1zM497 940l-111 73l84 115l117 -79l-85 -110l112 -76l-86 -112l-115 76z" />
    <glyph glyph-name="uni0682.medi" unicode="&#x682;" horiz-adv-x="1101" 
d="M972 0q-52 0 -89 12t-62.5 32t-41.5 45t-25.5 51t-15.5 51t-12 45q-59 -26 -110.5 -53.5t-99.5 -53.5t-94.5 -49.5t-97 -41t-107.5 -28t-124 -10.5h-123v148h119q64 0 117 7.5t99 20.5t88 31t85 38.5t89 43.5t100 47q-59 12 -112.5 33t-99.5 42t-83 36.5t-62 15.5
q-20 0 -37.5 -8t-32.5 -20t-27.5 -26t-21.5 -26l-90 47q15 27 36 59.5t46.5 60.5t54.5 47t60 19q45 0 89.5 -15t93 -37t102.5 -47t118.5 -45.5t142.5 -31.5q51 -8 110 -8q30 0 63 2l-33 -139q-66 0 -111.5 -9.5t-74.5 -23.5q9 -35 26 -57t43.5 -34.5t62 -17.5t81.5 -5h120
v-148h-159zM497 940l-111 73l84 115l117 -79l-85 -110l112 -76l-86 -112l-115 76z" />
    <glyph glyph-name="uni0682.fina" unicode="&#x682;" horiz-adv-x="1088" 
d="M1126 -704q-96 -32 -199 -50t-215 -18q-129 0 -244 25t-202 82t-137.5 150t-50.5 230q0 79 23.5 149.5t63.5 132.5t93 114.5t112.5 95.5t122 75.5t121.5 55.5q-69 20 -126 36q-24 7 -48.5 13.5t-45.5 11.5t-37 8t-23 3q-22 0 -40 -9t-33.5 -23.5t-27.5 -31.5t-22 -33
l-97 43q9 21 28 55.5t45 67t59.5 56.5t72.5 24q45 0 91.5 -11t97 -27t106 -33t119.5 -30t138 -18q26 -2 54 -2q50 0 105 6l-37 -149q-22 -1 -49.5 -2.5t-55.5 -5t-53 -8.5t-43 -13q6 -41 24 -64.5t47 -35.5t67.5 -15t85.5 -3h102v-148h-141q-45 0 -80 10.5t-62 28t-46 40
t-32 46.5q-31 55 -40 125q-112 -38 -206 -93t-161.5 -122.5t-105 -146t-37.5 -162.5q0 -80 31.5 -145t98 -110.5t169.5 -70.5t245 -25q106 0 185.5 11.5t148.5 36.5zM477 940l-111 73l84 115l117 -79l-85 -110l112 -76l-86 -112l-115 76z" />
    <glyph glyph-name="uni0685.init" unicode="&#x685;" horiz-adv-x="1012" 
d="M921 274q-75 -1 -133.5 -13t-106 -31.5t-88 -44t-80 -50t-81.5 -50t-92.5 -43.5t-113.5 -30.5t-145 -11.5h-111v148h119q75 0 129.5 8t96.5 22t77 32.5t70.5 39t77.5 42t98 42.5q-42 10 -88 29.5t-88.5 39.5t-79.5 35t-62 15q-20 0 -39 -8.5t-36 -21t-32.5 -27
t-27.5 -25.5l-84 49q15 25 39 55.5t52.5 57.5t58.5 45t57 18q46 0 88.5 -14t87.5 -34.5t93.5 -44.5t105 -43.5t123.5 -31.5q54 -11 118 -11q15 0 31 1zM499 946l-108 80l74 96l108 -78zM624 764l-110 82l-76 -94l-109 75l80 103l107 -80l74 92l112 -78z" />
    <glyph glyph-name="uni0685.medi" unicode="&#x685;" horiz-adv-x="1101" 
d="M972 0q-52 0 -89 12t-62.5 32t-41.5 45t-25.5 51t-15.5 51t-12 45q-59 -26 -110.5 -53.5t-99.5 -53.5t-94.5 -49.5t-97 -41t-107.5 -28t-124 -10.5h-123v148h119q64 0 117 7.5t99 20.5t88 31t85 38.5t89 43.5t100 47q-59 12 -112.5 33t-99.5 42t-83 36.5t-62 15.5
q-20 0 -37.5 -8t-32.5 -20t-27.5 -26t-21.5 -26l-90 47q15 27 36 59.5t46.5 60.5t54.5 47t60 19q45 0 89.5 -15t93 -37t102.5 -47t118.5 -45.5t142.5 -31.5q51 -8 110 -8q30 0 63 2l-33 -139q-66 0 -111.5 -9.5t-74.5 -23.5q9 -35 26 -57t43.5 -34.5t62 -17.5t81.5 -5h120
v-148h-159zM499 946l-108 80l74 96l108 -78zM624 764l-110 82l-76 -94l-109 75l80 103l107 -80l74 92l112 -78z" />
    <glyph glyph-name="uni0685.fina" unicode="&#x685;" horiz-adv-x="1088" 
d="M1126 -704q-96 -32 -199 -50t-215 -18q-129 0 -244 25t-202 82t-137.5 150t-50.5 230q0 79 23.5 149.5t63.5 132.5t93 114.5t112.5 95.5t122 75.5t121.5 55.5q-69 20 -126 36q-24 7 -48.5 13.5t-45.5 11.5t-37 8t-23 3q-22 0 -40 -9t-33.5 -23.5t-27.5 -31.5t-22 -33
l-97 43q9 21 28 55.5t45 67t59.5 56.5t72.5 24q45 0 91.5 -11t97 -27t106 -33t119.5 -30t138 -18q26 -2 54 -2q50 0 105 6l-37 -149q-22 -1 -49.5 -2.5t-55.5 -5t-53 -8.5t-43 -13q6 -41 24 -64.5t47 -35.5t67.5 -15t85.5 -3h102v-148h-141q-45 0 -80 10.5t-62 28t-46 40
t-32 46.5q-31 55 -40 125q-112 -38 -206 -93t-161.5 -122.5t-105 -146t-37.5 -162.5q0 -80 31.5 -145t98 -110.5t169.5 -70.5t245 -25q106 0 185.5 11.5t148.5 36.5zM569 946l-108 80l74 96l108 -78zM694 764l-110 82l-76 -94l-109 75l80 103l107 -80l74 92l112 -78z" />
    <glyph glyph-name="uni0689.fina" unicode="&#x689;" horiz-adv-x="964" 
d="M507 -131q0 19 -11.5 37t-27.5 34.5t-34 30t-31 20.5q-56 -87 -56 -114q0 -33 19 -51.5t58 -18.5q12 0 26.5 3.5t26.5 11t21 19.5t9 28zM324 -29q-76 2 -128 18q-61 18 -101 58l69 125q31 -22 70 -32.5t98 -10.5q31 0 69.5 1.5t77 7.5t73.5 18t58.5 32.5t32.5 51.5
q3 12 3 25q0 23 -9 50l-123 396l95 106l131 -448q21 -73 44.5 -116.5t48 -67t49 -30.5t46.5 -7h66v-148h-66q-29 0 -57.5 3t-56.5 18t-57 47.5t-60 91.5q-28 -63 -66 -100.5t-83 -56.5q-9 -4 -17 -7q25 -29 40 -60q14 -32 14 -65q0 -42 -16 -71t-40 -47.5t-54.5 -27
t-58.5 -8.5q-33 0 -58.5 10t-43 27t-26.5 39t-9 46q0 27 4.5 47.5t14 40t24.5 41.5q1 1 2 3z" />
    <glyph glyph-name="uni068A.fina" unicode="&#x68a;" horiz-adv-x="964" 
d="M928 0q-29 0 -57.5 3t-56.5 18t-57 47.5t-60 91.5q-28 -63 -66 -100.5t-83.5 -57t-96.5 -25.5t-103 -6q-92 0 -152.5 18t-100.5 58l69 125q31 -22 70 -32.5t98 -10.5q31 0 69.5 1.5t77 7.5t73.5 18t58.5 32.5t32.5 51.5q3 12 3 25q0 23 -9 50l-123 396l95 106l131 -448
q21 -73 44.5 -116.5t48 -67t49 -30.5t46.5 -7h66v-148h-66zM439 -410l-131 89l96 131l131 -91z" />
    <glyph glyph-name="uni068B.fina" unicode="&#x68b;" horiz-adv-x="964" 
d="M928 0q-29 0 -57.5 3t-56.5 18t-57 47.5t-60 91.5q-28 -63 -66 -100.5t-83.5 -57t-96.5 -25.5t-103 -6q-92 0 -152.5 18t-100.5 58l69 125q31 -22 70 -32.5t98 -10.5q31 0 69.5 1.5t77 7.5t73.5 18t58.5 32.5t32.5 51.5q3 12 3 25q0 23 -9 50l-123 396l95 106l131 -448
q21 -73 44.5 -116.5t48 -67t49 -30.5t46.5 -7h66v-148h-66zM481 1089q12 12 29 26t36 26t39.5 19.5t39.5 7.5q22 0 37.5 -7t27 -18t17 -25t5.5 -27q0 -27 -11 -53t-35.5 -45.5t-63 -31.5t-94.5 -12h-101q-17 0 -33 2t-31.5 6.5t-28.5 10.5t-23 14l15 43q22 -8 40 -13
q10 -2 20 -2q7 0 13 1q17 2 31 13.5t27 33.5q0 2 1 16v11q0 11 -1 27q0 22 -0.5 51t-1.5 59.5t-1.5 60.5t-1.5 55v22l49 21v-292zM665 1071q0 9 -4.5 17t-12 13.5t-19 9t-23.5 3.5q-11 0 -23.5 -5.5t-26.5 -14t-29.5 -19.5t-30 -23t-28 -24t-25.5 -23h70q43 0 72.5 7
t47 16.5t25 21t7.5 21.5zM439 -410l-131 89l96 131l131 -91z" />
    <glyph glyph-name="uni068F.fina" unicode="&#x68f;" horiz-adv-x="964" 
d="M928 0q-29 0 -57.5 3t-56.5 18t-57 47.5t-60 91.5q-28 -63 -66 -100.5t-83.5 -57t-96.5 -25.5t-103 -6q-92 0 -152.5 18t-100.5 58l69 125q31 -22 70 -32.5t98 -10.5q31 0 69.5 1.5t77 7.5t73.5 18t58.5 32.5t32.5 51.5q3 12 3 25q0 23 -9 50l-123 396l95 106l131 -448
q21 -73 44.5 -116.5t48 -67t49 -30.5t46.5 -7h66v-148h-66zM515 1112l108 -80l-74 -94l-106 78zM392 1294l108 -79l76 94l111 -78l-82 -100l-107 77l-74 -92l-110 78z" />
    <glyph glyph-name="uni0690.fina" unicode="&#x690;" horiz-adv-x="964" 
d="M928 0q-29 0 -57.5 3t-56.5 18t-57 47.5t-60 91.5q-28 -63 -66 -100.5t-83.5 -57t-96.5 -25.5t-103 -6q-92 0 -152.5 18t-100.5 58l69 125q31 -22 70 -32.5t98 -10.5q31 0 69.5 1.5t77 7.5t73.5 18t58.5 32.5t32.5 51.5q3 12 3 25q0 23 -9 50l-123 396l95 106l131 -448
q21 -73 44.5 -116.5t48 -67t49 -30.5t46.5 -7h66v-148h-66zM590 1129l105 -73l-78 -100l-110 82l-76 -94l-109 75l76 98l-105 73l80 103l107 -80l74 92l112 -78zM581 1132l-103 77l-72 -90l103 -77z" />
    <glyph glyph-name="uni0692.fina" unicode="&#x692;" horiz-adv-x="808" 
d="M600 243q13 -17 28 -32q27 -27 62.5 -45t84.5 -18h63v-148h-61q-25 0 -58 3t-66 19l-17 11q0 -68 -28.5 -132.5t-74.5 -122.5t-104 -108.5t-116.5 -92t-113 -73t-92.5 -49.5l-104 80q55 30 114.5 67.5t117 79t108.5 85.5t90 87t61.5 84t22.5 76q0 48 -23.5 105t-68.5 119
l104 106q21 -29 36 -52.5t35 -48.5zM250 816q3 6 6 13t6.5 14.5t9.5 16.5q25 -19 52 -46.5t51 -59t40 -65t24 -59.5q6 28 23 61t41 65t50 59t57 45q7 -16 13.5 -30.5t11.5 -24.5q-15 -11 -33.5 -28.5t-37 -40t-36 -49.5t-31.5 -57t-23.5 -62.5t-12.5 -65.5h-43
q-2 33 -12 65.5t-24 62.5t-32 57t-36 49.5t-36 40t-33 28.5q2 5 5 11z" />
    <glyph glyph-name="uni0693.fina" unicode="&#x693;" horiz-adv-x="808" 
d="M517 -461q0 19 -11.5 37t-27.5 34.5t-34 30t-31 20.5q-56 -87 -56 -114q0 -33 19 -51.5t58 -18.5q12 0 26.5 3.5t26.5 11t21 19.5t9 28zM296 -434q-50 -35 -96 -61q-55 -32 -93 -50l-104 80q55 30 114.5 67.5t117 79t108.5 85.5t90 87t61.5 84t22.5 76q0 48 -23.5 105
t-68.5 119l104 106q21 -29 36 -52.5t35 -48.5q13 -17 28 -32q27 -27 62.5 -45t84.5 -18h63v-148h-61q-25 0 -58 3t-66 19l-17 11q0 -68 -28.5 -132.5t-74.5 -122.5q-23 -29 -50 -57q34 -27 58 -54q25 -30 39.5 -61.5t14.5 -64.5q0 -42 -16 -71t-40 -47.5t-54.5 -27
t-58.5 -8.5q-33 0 -58.5 10t-43 27t-26.5 39t-9 46q0 27 5 48q1 4 2 9z" />
    <glyph glyph-name="uni0694.fina" unicode="&#x694;" horiz-adv-x="808" 
d="M600 243q13 -17 28 -32q27 -27 62.5 -45t84.5 -18h63v-148h-61q-25 0 -58 3t-66 19l-17 11q0 -68 -28.5 -132.5t-74.5 -122.5t-104 -108.5t-116.5 -92t-113 -73t-92.5 -49.5l-104 80q55 30 114.5 67.5t117 79t108.5 85.5t90 87t61.5 84t22.5 76q0 48 -23.5 105t-68.5 119
l104 106q21 -29 36 -52.5t35 -48.5zM480 -700l-131 89l96 131l131 -91z" />
    <glyph glyph-name="uni0695.fina" unicode="&#x695;" horiz-adv-x="808" 
d="M600 243q13 -17 28 -32q27 -27 62.5 -45t84.5 -18h63v-148h-61q-25 0 -58 3t-66 19l-17 11q0 -68 -28.5 -132.5t-74.5 -122.5t-104 -108.5t-116.5 -92t-113 -73t-92.5 -49.5l-104 80q55 30 114.5 67.5t117 79t108.5 85.5t90 87t61.5 84t22.5 76q0 48 -23.5 105t-68.5 119
l104 106q21 -29 36 -52.5t35 -48.5zM220 -604q3 6 6 13t6.5 14.5t9.5 16.5q25 -19 52 -46.5t51 -59t40 -65t24 -59.5q6 28 23 61t41 65t50 59t57 45q7 -16 13.5 -30.5t11.5 -24.5q-15 -11 -33.5 -28.5t-37 -40t-36 -49.5t-31.5 -57t-23.5 -62.5t-12.5 -65.5h-43
q-2 33 -12 65.5t-24 62.5t-32 57t-36 49.5t-36 40t-33 28.5q2 5 5 11z" />
    <glyph glyph-name="uni0696.fina" unicode="&#x696;" horiz-adv-x="808" 
d="M600 243q13 -17 28 -32q27 -27 62.5 -45t84.5 -18h63v-148h-61q-25 0 -58 3t-66 19l-17 11q0 -68 -28.5 -132.5t-74.5 -122.5t-104 -108.5t-116.5 -92t-113 -73t-92.5 -49.5l-104 80q55 30 114.5 67.5t117 79t108.5 85.5t90 87t61.5 84t22.5 76q0 48 -23.5 105t-68.5 119
l104 106q21 -29 36 -52.5t35 -48.5zM274 -91l-131 89l96 131l131 -91zM480 -700l-131 89l96 131l131 -91z" />
    <glyph glyph-name="uni0697.fina" unicode="&#x697;" horiz-adv-x="808" 
d="M600 243q13 -17 28 -32q27 -27 62.5 -45t84.5 -18h63v-148h-61q-25 0 -58 3t-66 19l-17 11q0 -68 -28.5 -132.5t-74.5 -122.5t-104 -108.5t-116.5 -92t-113 -73t-92.5 -49.5l-104 80q55 30 114.5 67.5t117 79t108.5 85.5t90 87t61.5 84t22.5 76q0 48 -23.5 105t-68.5 119
l104 106q21 -29 36 -52.5t35 -48.5zM520 502l-110 82l-76 -94l-109 75l80 103l107 -80l74 92l112 -78z" />
    <glyph glyph-name="uni0699.fina" unicode="&#x699;" horiz-adv-x="808" 
d="M600 243q13 -17 28 -32q27 -27 62.5 -45t84.5 -18h63v-148h-61q-25 0 -58 3t-66 19l-17 11q0 -68 -28.5 -132.5t-74.5 -122.5t-104 -108.5t-116.5 -92t-113 -73t-92.5 -49.5l-104 80q55 30 114.5 67.5t117 79t108.5 85.5t90 87t61.5 84t22.5 76q0 48 -23.5 105t-68.5 119
l104 106q21 -29 36 -52.5t35 -48.5zM493 673l105 -73l-78 -100l-110 82l-76 -94l-109 75l76 98l-105 73l80 103l107 -80l74 92l112 -78zM484 676l-103 77l-72 -90l103 -77z" />
    <glyph glyph-name="uni069A.init" unicode="&#x69a;" horiz-adv-x="1096" 
d="M1013 262q0 -57 -16.5 -105t-46.5 -83t-71 -54.5t-90 -19.5q-72 0 -119 25.5t-73 76.5q-43 -59 -93 -80.5t-108 -21.5q-22 0 -48 5t-50.5 17t-44.5 31.5t-31 48.5q-17 -30 -39.5 -49.5t-48 -31t-52 -16.5t-50.5 -5h-62v148h35q36 0 66.5 6t53 23.5t35.5 49.5t13 84v25
l96 35v-27q0 -42 6 -78t20.5 -62.5t39.5 -41t63 -14.5q28 0 55 5.5t48 22.5t34 49t13 86v25l98 35v-27q0 -42 7.5 -78t24.5 -61.5t46 -40t72 -14.5q29 0 49 8t33 21t18.5 30.5t5.5 36.5q0 15 -5.5 33.5t-14.5 36.5t-20 34.5t-21 28.5l96 108q18 -21 32 -51t23.5 -61.5
t15 -61t5.5 -51.5zM622 680l-131 88l96 131l131 -90zM622 -410l-131 89l96 131l131 -91z" />
    <glyph glyph-name="uni069A.medi" unicode="&#x69a;" horiz-adv-x="1214" 
d="M1181 0q-66 0 -117 22t-76 78q-40 -57 -92 -78.5t-115 -21.5q-62 0 -105.5 27t-66.5 73q-76 -100 -213 -100q-24 0 -49.5 6t-49 18t-43.5 31t-32 45q-17 -28 -39 -47t-46.5 -31t-51 -17t-53.5 -5h-62v148h37q35 0 65.5 6t53 23.5t35 49.5t12.5 84v25l98 35v-27
q0 -97 33 -146.5t96 -49.5q32 0 61 5t51 22t35 49.5t13 86.5v25l98 35v-27q0 -42 6 -78t20.5 -62.5t39.5 -41t63 -14.5q70 0 111 36.5t41 126.5v25l98 39v-31q0 -45 5.5 -81t21.5 -61.5t44.5 -39.5t74.5 -14h61v-148h-63zM622 680l-131 88l96 131l131 -90zM622 -410l-131 89
l96 131l131 -91z" />
    <glyph glyph-name="uni069A.fina" unicode="&#x69a;" horiz-adv-x="1968" 
d="M1925 0q-20 0 -44.5 5t-48.5 16.5t-45 30.5t-34 48q-42 -58 -91.5 -79t-105.5 -21q-54 0 -103 24t-77 76q-37 -58 -81 -79t-106 -21q-35 0 -71.5 10.5t-67.5 38.5q2 -26 2 -50q0 -102 -30 -185q-38 -104 -109 -175.5t-171.5 -109t-217.5 -37.5q-112 0 -194 36t-136 95.5
t-80 136.5t-26 160q0 30 6 69t18 80.5t28.5 83t37.5 76.5l100 -36q-15 -23 -27.5 -55t-22 -66t-15 -66t-5.5 -55q0 -68 18.5 -125t59 -98t105 -64.5t155.5 -23.5q95 0 168.5 27t123.5 71t76 101.5t26 119.5q0 39 -7.5 79.5t-20.5 79.5t-31 75.5t-38 68.5l117 101
q19 -39 40 -77t47 -69t58.5 -50t75.5 -19q31 0 58 5.5t46.5 22.5t30.5 49t11 86v25l98 35v-27q0 -196 129 -196q29 0 56.5 5t48.5 22t33.5 49.5t12.5 86.5v25l97 35v-27q0 -45 5.5 -81.5t21.5 -62t45 -39t75 -13.5h49v-148h-73zM1392 680l-131 88l96 131l131 -90zM1392 -410
l-131 89l96 131l131 -91z" />
    <glyph glyph-name="uni069B.init" unicode="&#x69b;" horiz-adv-x="1096" 
d="M1013 262q0 -57 -16.5 -105t-46.5 -83t-71 -54.5t-90 -19.5q-72 0 -119 25.5t-73 76.5q-43 -59 -93 -80.5t-108 -21.5q-22 0 -48 5t-50.5 17t-44.5 31.5t-31 48.5q-17 -30 -39.5 -49.5t-48 -31t-52 -16.5t-50.5 -5h-62v148h35q36 0 66.5 6t53 23.5t35.5 49.5t13 84v25
l96 35v-27q0 -42 6 -78t20.5 -62.5t39.5 -41t63 -14.5q28 0 55 5.5t48 22.5t34 49t13 86v25l98 35v-27q0 -42 7.5 -78t24.5 -61.5t46 -40t72 -14.5q29 0 49 8t33 21t18.5 30.5t5.5 36.5q0 15 -5.5 33.5t-14.5 36.5t-20 34.5t-21 28.5l96 108q18 -21 32 -51t23.5 -61.5
t15 -61t5.5 -51.5zM611 -360l111 -80l-76 -97l-107 78zM488 -178l111 -82l74 96l110 -78l-82 -102l-106 80l-74 -92l-111 78z" />
    <glyph glyph-name="uni069B.medi" unicode="&#x69b;" horiz-adv-x="1214" 
d="M1181 0q-66 0 -117 22t-76 78q-40 -57 -92 -78.5t-115 -21.5q-62 0 -105.5 27t-66.5 73q-76 -100 -213 -100q-24 0 -49.5 6t-49 18t-43.5 31t-32 45q-17 -28 -39 -47t-46.5 -31t-51 -17t-53.5 -5h-62v148h37q35 0 65.5 6t53 23.5t35 49.5t12.5 84v25l98 35v-27
q0 -97 33 -146.5t96 -49.5q32 0 61 5t51 22t35 49.5t13 86.5v25l98 35v-27q0 -42 6 -78t20.5 -62.5t39.5 -41t63 -14.5q70 0 111 36.5t41 126.5v25l98 39v-31q0 -45 5.5 -81t21.5 -61.5t44.5 -39.5t74.5 -14h61v-148h-63zM631 -360l111 -80l-76 -97l-107 78zM508 -178
l111 -82l74 96l110 -78l-82 -102l-106 80l-74 -92l-111 78z" />
    <glyph glyph-name="uni069B.fina" unicode="&#x69b;" horiz-adv-x="1968" 
d="M1925 0q-20 0 -44.5 5t-48.5 16.5t-45 30.5t-34 48q-42 -58 -91.5 -79t-105.5 -21q-54 0 -103 24t-77 76q-37 -58 -81 -79t-106 -21q-35 0 -71.5 10.5t-67.5 38.5q2 -26 2 -50q0 -102 -30 -185q-38 -104 -109 -175.5t-171.5 -109t-217.5 -37.5q-112 0 -194 36t-136 95.5
t-80 136.5t-26 160q0 30 6 69t18 80.5t28.5 83t37.5 76.5l100 -36q-15 -23 -27.5 -55t-22 -66t-15 -66t-5.5 -55q0 -68 18.5 -125t59 -98t105 -64.5t155.5 -23.5q95 0 168.5 27t123.5 71t76 101.5t26 119.5q0 39 -7.5 79.5t-20.5 79.5t-31 75.5t-38 68.5l117 101
q19 -39 40 -77t47 -69t58.5 -50t75.5 -19q31 0 58 5.5t46.5 22.5t30.5 49t11 86v25l98 35v-27q0 -196 129 -196q29 0 56.5 5t48.5 22t33.5 49.5t12.5 86.5v25l97 35v-27q0 -45 5.5 -81.5t21.5 -62t45 -39t75 -13.5h49v-148h-73zM1411 -360l111 -80l-76 -97l-107 78z
M1288 -178l111 -82l74 96l110 -78l-82 -102l-106 80l-74 -92l-111 78z" />
    <glyph glyph-name="uni069C.init" unicode="&#x69c;" horiz-adv-x="1096" 
d="M1013 262q0 -57 -16.5 -105t-46.5 -83t-71 -54.5t-90 -19.5q-72 0 -119 25.5t-73 76.5q-43 -59 -93 -80.5t-108 -21.5q-22 0 -48 5t-50.5 17t-44.5 31.5t-31 48.5q-17 -30 -39.5 -49.5t-48 -31t-52 -16.5t-50.5 -5h-62v148h35q36 0 66.5 6t53 23.5t35.5 49.5t13 84v25
l96 35v-27q0 -42 6 -78t20.5 -62.5t39.5 -41t63 -14.5q28 0 55 5.5t48 22.5t34 49t13 86v25l98 35v-27q0 -42 7.5 -78t24.5 -61.5t46 -40t72 -14.5q29 0 49 8t33 21t18.5 30.5t5.5 36.5q0 15 -5.5 33.5t-14.5 36.5t-20 34.5t-21 28.5l96 108q18 -21 32 -51t23.5 -61.5
t15 -61t5.5 -51.5zM595 877l-109 79l74 95l109 -78zM720 692l-111 82l-76 -94l-108 78l80 100l106 -78l74 92l113 -77zM611 -360l111 -80l-76 -97l-107 78zM488 -178l111 -82l74 96l110 -78l-82 -102l-106 80l-74 -92l-111 78z" />
    <glyph glyph-name="uni069C.medi" unicode="&#x69c;" horiz-adv-x="1214" 
d="M1181 0q-66 0 -117 22t-76 78q-40 -57 -92 -78.5t-115 -21.5q-62 0 -105.5 27t-66.5 73q-76 -100 -213 -100q-24 0 -49.5 6t-49 18t-43.5 31t-32 45q-17 -28 -39 -47t-46.5 -31t-51 -17t-53.5 -5h-62v148h37q35 0 65.5 6t53 23.5t35 49.5t12.5 84v25l98 35v-27
q0 -97 33 -146.5t96 -49.5q32 0 61 5t51 22t35 49.5t13 86.5v25l98 35v-27q0 -42 6 -78t20.5 -62.5t39.5 -41t63 -14.5q70 0 111 36.5t41 126.5v25l98 39v-31q0 -45 5.5 -81t21.5 -61.5t44.5 -39.5t74.5 -14h61v-148h-63zM605 877l-108 79l73 95l109 -78zM730 692l-111 82
l-75 -94l-109 78l80 100l107 -78l73 92l113 -77zM631 -360l111 -80l-76 -97l-107 78zM508 -178l111 -82l74 96l110 -78l-82 -102l-106 80l-74 -92l-111 78z" />
    <glyph glyph-name="uni069C.fina" unicode="&#x69c;" horiz-adv-x="1968" 
d="M1925 0q-20 0 -44.5 5t-48.5 16.5t-45 30.5t-34 48q-42 -58 -91.5 -79t-105.5 -21q-54 0 -103 24t-77 76q-37 -58 -81 -79t-106 -21q-35 0 -71.5 10.5t-67.5 38.5q2 -26 2 -50q0 -102 -30 -185q-38 -104 -109 -175.5t-171.5 -109t-217.5 -37.5q-112 0 -194 36t-136 95.5
t-80 136.5t-26 160q0 30 6 69t18 80.5t28.5 83t37.5 76.5l100 -36q-15 -23 -27.5 -55t-22 -66t-15 -66t-5.5 -55q0 -68 18.5 -125t59 -98t105 -64.5t155.5 -23.5q95 0 168.5 27t123.5 71t76 101.5t26 119.5q0 39 -7.5 79.5t-20.5 79.5t-31 75.5t-38 68.5l117 101
q19 -39 40 -77t47 -69t58.5 -50t75.5 -19q31 0 58 5.5t46.5 22.5t30.5 49t11 86v25l98 35v-27q0 -196 129 -196q29 0 56.5 5t48.5 22t33.5 49.5t12.5 86.5v25l97 35v-27q0 -45 5.5 -81.5t21.5 -62t45 -39t75 -13.5h49v-148h-73zM1370 877l-109 79l74 95l106 -78zM1495 692
l-111 82l-76 -94l-110 78l81 100l107 -78l74 92l110 -77zM1411 -360l111 -80l-76 -97l-107 78zM1288 -178l111 -82l74 96l110 -78l-82 -102l-106 80l-74 -92l-111 78z" />
    <glyph glyph-name="uni069D.init" unicode="&#x69d;" horiz-adv-x="1343" 
d="M1263 375q0 -72 -29 -139.5t-93 -120t-167 -84t-250 -31.5h-270q-56 0 -94.5 5t-66.5 16t-47.5 30t-37.5 47q-32 -49 -74.5 -73.5t-99.5 -24.5h-64v148h43q49 0 78 13t44 34.5t19.5 49t4.5 56.5v41l114 39v-25q0 -59 7.5 -99t23 -64t38 -34.5t52.5 -10.5q35 0 59.5 13.5
t45 35.5t41 50.5t47.5 59.5q18 21 45.5 49.5t62.5 59.5t76 61t85.5 54t91 38.5t93.5 14.5q51 0 92 -19t70 -49t44.5 -67t15.5 -74zM1136 324q0 48 -41.5 80t-112.5 32q-45 0 -98 -28t-108 -71t-106.5 -93.5t-93.5 -95.5h160q115 0 192 18t123 45t65.5 57.5t19.5 55.5z
M970 -385l-113 84l-82 -98l-121 86l92 112l109 -82l80 97l123 -86z" />
    <glyph glyph-name="uni069D.medi" unicode="&#x69d;" horiz-adv-x="1333" 
d="M1299 0q-71 0 -118 22.5t-76 65.5q-72 -45 -165.5 -66.5t-215.5 -21.5h-270q-56 0 -94.5 5t-66.5 16t-47.5 30t-37.5 47q-25 -49 -68 -73.5t-96 -24.5h-74v148h43q49 0 78 13t44 34.5t19.5 49t4.5 56.5v41l114 39v-25q0 -59 7.5 -99t23 -64t38 -34.5t52.5 -10.5
q35 0 58.5 12.5t43.5 34t40.5 50.5t50.5 62q18 20 45.5 48.5t62.5 59.5t76 61t85.5 54t91 39t93.5 15q51 0 92 -19t70 -49t44.5 -67t15.5 -74q0 -50 -11.5 -98.5t-46.5 -96.5q9 -8 17.5 -14t20 -10t28 -6t41.5 -2h51v-148h-64zM1136 324q0 48 -41.5 80t-112.5 32
q-48 0 -102 -28.5t-107.5 -71.5t-104 -93.5t-92.5 -94.5h160q115 0 192 18t123 45t65.5 57.5t19.5 55.5zM970 -385l-113 84l-82 -98l-121 86l92 112l109 -82l80 97l123 -86z" />
    <glyph glyph-name="uni069D.fina" unicode="&#x69d;" horiz-adv-x="2097" 
d="M2064 0q-63 0 -113.5 21t-81.5 67q-72 -45 -164.5 -66.5t-214.5 -21.5h-268q-40 0 -85 9t-85 40q2 -25 2 -49q0 -103 -31 -186q-38 -104 -109.5 -175.5t-171.5 -109t-216 -37.5q-111 0 -193 36t-136 95.5t-80.5 136.5t-26.5 160q0 30 6 69t18 80.5t28.5 83t37.5 76.5
l100 -36q-15 -23 -27.5 -55t-22 -66t-15 -66t-5.5 -55q0 -68 18.5 -125t59 -98t104.5 -64.5t156 -23.5q95 0 168.5 27t123.5 71t76 101.5t26 119.5q0 39 -7.5 79.5t-20.5 79.5t-31 75.5t-38 68.5l117 101q23 -48 42 -88t40.5 -68t48 -43.5t64.5 -15.5q34 0 58 14t45 37.5
t42.5 54t52.5 63.5q28 31 76.5 76.5t109.5 88t129.5 72.5t137.5 30q51 0 92 -19t69 -49t43 -67t15 -74q0 -50 -11 -98.5t-46 -96.5q8 -8 16.5 -14t20.5 -10t28.5 -6t40.5 -2h51v-148h-63zM1900 324q0 48 -40 80t-110 32q-48 0 -104 -29.5t-111 -73t-104.5 -94t-85.5 -91.5
h160q114 0 190 18t121.5 45t64.5 57.5t19 55.5zM1738 -385l-113 84l-82 -98l-121 86l92 112l109 -82l80 97l123 -86z" />
    <glyph glyph-name="uni069E.init" unicode="&#x69e;" horiz-adv-x="1343" 
d="M1263 375q0 -72 -29 -139.5t-93 -120t-167 -84t-250 -31.5h-270q-56 0 -94.5 5t-66.5 16t-47.5 30t-37.5 47q-32 -49 -74.5 -73.5t-99.5 -24.5h-64v148h43q49 0 78 13t44 34.5t19.5 49t4.5 56.5v41l114 39v-25q0 -59 7.5 -99t23 -64t38 -34.5t52.5 -10.5q35 0 59.5 13.5
t45 35.5t41 50.5t47.5 59.5q18 21 45.5 49.5t62.5 59.5t76 61t85.5 54t91 38.5t93.5 14.5q51 0 92 -19t70 -49t44.5 -67t15.5 -74zM1136 324q0 48 -41.5 80t-112.5 32q-45 0 -98 -28t-108 -71t-106.5 -93.5t-93.5 -95.5h160q115 0 192 18t123 45t65.5 57.5t19.5 55.5z
M815 898l-109 79l74 95l106 -78zM940 713l-111 82l-76 -94l-110 78l81 100l107 -78l74 92l110 -77z" />
    <glyph glyph-name="uni069E.medi" unicode="&#x69e;" horiz-adv-x="1333" 
d="M1299 0q-71 0 -118 22.5t-76 65.5q-72 -45 -165.5 -66.5t-215.5 -21.5h-270q-56 0 -94.5 5t-66.5 16t-47.5 30t-37.5 47q-25 -49 -68 -73.5t-96 -24.5h-74v148h43q49 0 78 13t44 34.5t19.5 49t4.5 56.5v41l114 39v-25q0 -59 7.5 -99t23 -64t38 -34.5t52.5 -10.5
q35 0 58.5 12.5t43.5 34t40.5 50.5t50.5 62q18 20 45.5 48.5t62.5 59.5t76 61t85.5 54t91 39t93.5 15q51 0 92 -19t70 -49t44.5 -67t15.5 -74q0 -50 -11.5 -98.5t-46.5 -96.5q9 -8 17.5 -14t20 -10t28 -6t41.5 -2h51v-148h-64zM1136 324q0 48 -41.5 80t-112.5 32
q-48 0 -102 -28.5t-107.5 -71.5t-104 -93.5t-92.5 -94.5h160q115 0 192 18t123 45t65.5 57.5t19.5 55.5zM813 898l-109 79l74 95l106 -78zM938 713l-111 82l-76 -94l-110 78l81 100l107 -78l74 92l110 -77z" />
    <glyph glyph-name="uni069E.fina" unicode="&#x69e;" horiz-adv-x="2097" 
d="M2064 0q-63 0 -113.5 21t-81.5 67q-72 -45 -164.5 -66.5t-214.5 -21.5h-268q-40 0 -85 9t-85 40q2 -25 2 -49q0 -103 -31 -186q-38 -104 -109.5 -175.5t-171.5 -109t-216 -37.5q-111 0 -193 36t-136 95.5t-80.5 136.5t-26.5 160q0 30 6 69t18 80.5t28.5 83t37.5 76.5
l100 -36q-15 -23 -27.5 -55t-22 -66t-15 -66t-5.5 -55q0 -68 18.5 -125t59 -98t104.5 -64.5t156 -23.5q95 0 168.5 27t123.5 71t76 101.5t26 119.5q0 39 -7.5 79.5t-20.5 79.5t-31 75.5t-38 68.5l117 101q23 -48 42 -88t40.5 -68t48 -43.5t64.5 -15.5q34 0 58 14t45 37.5
t42.5 54t52.5 63.5q28 31 76.5 76.5t109.5 88t129.5 72.5t137.5 30q51 0 92 -19t69 -49t43 -67t15 -74q0 -50 -11 -98.5t-46 -96.5q8 -8 16.5 -14t20.5 -10t28.5 -6t40.5 -2h51v-148h-63zM1900 324q0 48 -40 80t-110 32q-48 0 -104 -29.5t-111 -73t-104.5 -94t-85.5 -91.5
h160q114 0 190 18t121.5 45t64.5 57.5t19 55.5zM1546 889l-109 79l74 95l106 -78zM1671 704l-111 82l-76 -94l-110 78l81 100l107 -78l74 92l110 -77z" />
    <glyph glyph-name="uni069F.init" unicode="&#x69f;" horiz-adv-x="1025" 
d="M945 375q0 -72 -29 -140t-93 -120t-167.5 -83.5t-251.5 -31.5h-434v148h58q45 0 93 39.5t93 99.5q2 5 3 44v28q0 30 -1 71q-1 61 -2.5 138t-3 158t-3.5 160.5t-4 145.5t-3.5 113t-1.5 63l135 50v-889q30 34 74.5 71.5t96.5 69t106.5 52t105.5 20.5q56 0 98.5 -19
t71.5 -48.5t44 -66.5t15 -73zM818 324q0 48 -42 80t-113 32q-28 0 -62.5 -13.5t-72 -36t-77 -52.5t-78 -62t-75 -64t-68.5 -60h187q115 0 192 18t123.5 45t66 57.5t19.5 55.5zM666 900l-109 79l74 95l106 -78zM791 715l-111 82l-76 -94l-110 78l81 100l107 -78l74 92
l110 -77z" />
    <glyph glyph-name="uni069F.medi" unicode="&#x69f;" horiz-adv-x="1024" 
d="M992 0q-72 0 -121.5 25t-78.5 65q-75 -45 -169 -67.5t-219 -22.5h-434v148h58q45 0 93 39.5t93 99.5q2 5 3 44v28q0 30 -1 71q-1 61 -2.5 138t-3 158t-3.5 160.5t-4 145.5t-3.5 113t-1.5 63l135 50v-889q30 34 74.5 71.5t96.5 69t106.5 52t105.5 20.5q56 0 99.5 -19
t73 -48.5t45 -66.5t15.5 -73q0 -26 -4.5 -54t-13.5 -55.5t-22 -51.5t-29 -42q17 -17 45 -20.5t77 -3.5h52v-148h-62zM818 324q0 48 -42 80t-113 32q-28 0 -62.5 -13.5t-72 -36t-77 -52.5t-78 -62t-75 -64t-68.5 -60h187q115 0 192 18t123.5 45t66 57.5t19.5 55.5zM666 903
l-109 79l74 95l106 -78zM791 718l-111 82l-76 -94l-110 78l81 100l107 -78l74 92l110 -77z" />
    <glyph glyph-name="uni069F.fina" unicode="&#x69f;" horiz-adv-x="1246" 
d="M1213 0q-68 0 -118.5 23.5t-82.5 66.5q-72 -45 -166 -67.5t-221 -22.5h-268q-44 0 -87.5 5.5t-84 17t-75 28t-60.5 37.5l41 115q56 -24 104 -35q29 -7 55 -7q18 0 35 4q42 7 79.5 36.5t72.5 87.5q1 5 2 44v28q0 30 -1 71q-1 60 -2.5 137t-3.5 158t-4 160.5t-4 145.5
t-3.5 112.5t-2.5 62.5l135 50v-889q31 34 76 71.5t96.5 69t106 52t104.5 20.5q56 0 100 -19t74 -48.5t46 -66.5t16 -73q0 -26 -5 -54t-14.5 -55t-24 -51t-32.5 -41q17 -17 48.5 -21.5t80.5 -4.5h51v-148h-63zM1041 324q0 24 -11.5 44.5t-32 35.5t-49.5 23.5t-63 8.5
q-28 0 -62 -13.5t-71.5 -36t-77 -52.5t-78.5 -62t-76 -64t-69 -60h188q115 0 192 18t123.5 45t66.5 57.5t20 55.5zM865 906l-109 79l74 95l106 -78zM990 721l-111 82l-76 -94l-110 78l81 100l107 -78l74 92l110 -77z" />
    <glyph glyph-name="uni06A0.init" unicode="&#x6a0;" horiz-adv-x="842" 
d="M777 123q-87 -29 -169 -51.5t-170 -38.5t-186.5 -24.5t-217.5 -8.5h-64v148h232q-17 14 -33.5 36.5t-29.5 52t-21 64.5t-8 74q0 46 21 96.5t61 92.5t99 69t134 27q31 0 64.5 -7.5t66.5 -21t63.5 -31t53.5 -37.5l-47 -98q-26 15 -56 25.5t-58.5 16.5t-52.5 8.5t-38 2.5
q-45 0 -82 -12t-63 -32t-40 -45.5t-14 -51.5q0 -44 23 -76.5t60.5 -54.5t85.5 -32.5t99 -10.5q32 0 73 6t82.5 15t80 18.5t66.5 17.5zM361 977l-109 79l74 95l106 -78zM486 792l-111 82l-76 -94l-110 78l81 100l107 -78l74 92l110 -77z" />
    <glyph glyph-name="uni06A0.medi" unicode="&#x6a0;" horiz-adv-x="778" 
d="M703 0q-51 0 -100.5 9t-92 27.5t-75.5 48t-51 71.5q-78 -84 -162.5 -120t-183.5 -36h-68v148h47q106 0 177 24t118 84q-6 21 -20 40.5t-35 35t-48.5 25.5t-60.5 12q3 43 22.5 82.5t57.5 70t93.5 48.5t130.5 18q40 0 74.5 -11t60 -29t39.5 -41.5t14 -49.5q0 -47 -12.5 -80
t-35.5 -59t-55 -49t-71 -50q27 -24 59 -38.5t68 -21.5t74 -9t77 -2h64v-148h-105zM357 912l-109 79l74 95l106 -78zM482 727l-111 82l-76 -94l-110 78l81 100l107 -78l74 92l110 -77z" />
    <glyph glyph-name="uni06A0.fina" unicode="&#x6a0;" horiz-adv-x="977" 
d="M1043 -728q-46 -12 -98 -21.5t-110 -16t-121 -6.5q-129 0 -244 25t-202 82t-137.5 150t-50.5 230q0 97 37.5 179.5t98 152.5t137.5 126.5t155 100.5q-16 47 -58.5 75t-111.5 30q2 37 22 76t58.5 71t96.5 52t136 20q43 0 79.5 -11t63 -30t41.5 -44.5t15 -53.5
q0 -49 -16 -82.5t-43.5 -59.5t-63 -48.5t-74.5 -49.5q22 -25 53.5 -39.5t69 -21.5t79.5 -8.5t85 -1.5h67v-148h-139q-65 0 -113.5 11t-85 31t-61.5 49.5t-43 66.5q-85 -48 -150 -94.5t-109 -97.5t-66.5 -109.5t-22.5 -130.5t30.5 -136t95.5 -112t166.5 -75.5t243.5 -27.5
q97 0 178 16q51 9 99 20l44 -131q-15 -4 -31 -8zM551 938l-109 79l74 95l106 -78zM676 753l-111 82l-76 -94l-110 78l81 100l107 -78l74 92l110 -77z" />
    <glyph glyph-name="uni06A1.init" unicode="&#x6a1;" horiz-adv-x="588" 
d="M501 348q0 -94 -23.5 -160t-69 -108t-112.5 -61t-154 -19h-172v148h156q54 0 101 10.5t82 26t55 33t22 30.5q1 12 1 21v15q0 7 -0.5 13.5t-0.5 15.5q-38 -23 -71.5 -31t-77.5 -8q-50 0 -80.5 17t-48 41t-23.5 51t-6 47q0 19 6 51t17.5 68.5t29 74t40.5 68t51.5 49.5
t62.5 19q42 0 81 -37t68.5 -96.5t47.5 -133t18 -145.5zM359 440q-4 22 -12 51.5t-20.5 56t-28.5 44.5t-35 18q-16 0 -31.5 -15t-27.5 -35.5t-19.5 -42t-7.5 -34.5q0 -14 3 -27.5t11.5 -24.5t24 -18t41.5 -7q41 0 62.5 9.5t39.5 24.5z" />
    <glyph glyph-name="uni06A1.medi" unicode="&#x6a1;" horiz-adv-x="577" 
d="M556 0q-31 0 -68.5 5t-76 16t-75.5 28t-65 41q-137 -90 -260 -90h-41v148h58q15 0 32.5 2t35.5 6.5t35 11.5t30 16q-37 38 -49.5 85.5t-12.5 90.5q0 33 12 66t32 63t45.5 56t53 45t55 30t50.5 11q31 0 62 -18.5t55.5 -50.5t39.5 -74.5t15 -90.5q0 -38 -11 -72t-28.5 -63
t-38.5 -51.5t-41 -36.5q35 -15 77.5 -20.5t82.5 -5.5h47v-148h-51zM411 356q0 22 -8 44t-20.5 40t-28 29.5t-29.5 11.5q-18 0 -39 -10.5t-39.5 -27t-30.5 -36.5t-12 -38t9 -39t22.5 -40t29.5 -31.5t31 -12.5q12 0 31.5 11.5t38 28.5t32 36t13.5 34z" />
    <glyph glyph-name="uni06A1.fina" unicode="&#x6a1;" horiz-adv-x="1690" 
d="M1615 0q-35 0 -74.5 5.5t-79 17t-75.5 29.5t-64 42q-61 -32 -142.5 -57.5t-173 -43t-188 -27t-186.5 -9.5q-131 0 -230.5 13.5t-166.5 47.5t-101 91.5t-34 144.5q0 23 4.5 48.5t13 50.5t19.5 48t24 41l94 -28q-18 -31 -28.5 -67t-10.5 -64q0 -36 12 -68t49 -55.5t105 -37
t180 -13.5h103q193 0 331 19t214 56q-21 18 -33.5 39.5t-18.5 44.5t-8 47t-2 45q0 33 12 66t32 63t45.5 56t53 45t55 30t50.5 11q31 0 62 -19t55.5 -52t39.5 -77.5t15 -95.5q0 -29 -10.5 -62t-28 -64t-39.5 -56t-45 -37q19 -9 40.5 -13.5t43.5 -5.5q17 -2 34 -2q5 0 11 1
h146v-148h-105zM1459 369q0 21 -7 41t-19 35.5t-27.5 25.5t-32.5 10q-20 0 -41 -10.5t-38.5 -27t-29 -36.5t-11.5 -38t9 -39t22.5 -39t29.5 -30.5t31 -12.5q18 0 38 12.5t37 30.5t28 39t11 39z" />
    <glyph glyph-name="uni06A2.init" unicode="&#x6a2;" horiz-adv-x="588" 
d="M501 348q0 -94 -23.5 -160t-69 -108t-112.5 -61t-154 -19h-172v148h156q54 0 101 10.5t82 26t55 33t22 30.5q1 12 1 21v15q0 7 -0.5 13.5t-0.5 15.5q-38 -23 -71.5 -31t-77.5 -8q-50 0 -80.5 17t-48 41t-23.5 51t-6 47q0 19 6 51t17.5 68.5t29 74t40.5 68t51.5 49.5
t62.5 19q42 0 81 -37t68.5 -96.5t47.5 -133t18 -145.5zM359 440q-4 22 -12 51.5t-20.5 56t-28.5 44.5t-35 18q-16 0 -31.5 -15t-27.5 -35.5t-19.5 -42t-7.5 -34.5q0 -14 3 -27.5t11.5 -24.5t24 -18t41.5 -7q41 0 62.5 9.5t39.5 24.5zM273 -410l-131 89l96 131l131 -91z" />
    <glyph glyph-name="uni06A2.medi" unicode="&#x6a2;" horiz-adv-x="577" 
d="M556 0q-31 0 -68.5 5t-76 16t-75.5 28t-65 41q-137 -90 -260 -90h-41v148h58q15 0 32.5 2t35.5 6.5t35 11.5t30 16q-37 38 -49.5 85.5t-12.5 90.5q0 33 12 66t32 63t45.5 56t53 45t55 30t50.5 11q31 0 62 -18.5t55.5 -50.5t39.5 -74.5t15 -90.5q0 -38 -11 -72t-28.5 -63
t-38.5 -51.5t-41 -36.5q35 -15 77.5 -20.5t82.5 -5.5h47v-148h-51zM411 356q0 22 -8 44t-20.5 40t-28 29.5t-29.5 11.5q-18 0 -39 -10.5t-39.5 -27t-30.5 -36.5t-12 -38t9 -39t22.5 -40t29.5 -31.5t31 -12.5q12 0 31.5 11.5t38 28.5t32 36t13.5 34zM325 -410l-131 89l96 131
l131 -91z" />
    <glyph glyph-name="uni06A2.fina" unicode="&#x6a2;" horiz-adv-x="1690" 
d="M1615 0q-35 0 -74.5 5.5t-79 17t-75.5 29.5t-64 42q-61 -32 -142.5 -57.5t-173 -43t-188 -27t-186.5 -9.5q-131 0 -230.5 13.5t-166.5 47.5t-101 91.5t-34 144.5q0 23 4.5 48.5t13 50.5t19.5 48t24 41l94 -28q-18 -31 -28.5 -67t-10.5 -64q0 -36 12 -68t49 -55.5t105 -37
t180 -13.5h103q193 0 331 19t214 56q-21 18 -33.5 39.5t-18.5 44.5t-8 47t-2 45q0 33 12 66t32 63t45.5 56t53 45t55 30t50.5 11q31 0 62 -19t55.5 -52t39.5 -77.5t15 -95.5q0 -29 -10.5 -62t-28 -64t-39.5 -56t-45 -37q19 -9 40.5 -13.5t43.5 -5.5q17 -2 34 -2q5 0 11 1
h146v-148h-105zM1459 369q0 21 -7 41t-19 35.5t-27.5 25.5t-32.5 10q-20 0 -41 -10.5t-38.5 -27t-29 -36.5t-11.5 -38t9 -39t22.5 -39t29.5 -30.5t31 -12.5q18 0 38 12.5t37 30.5t28 39t11 39zM1363 -410l-131 89l96 131l131 -91z" />
    <glyph glyph-name="uni06A3.init" unicode="&#x6a3;" horiz-adv-x="588" 
d="M501 348q0 -94 -23.5 -160t-69 -108t-112.5 -61t-154 -19h-172v148h156q54 0 101 10.5t82 26t55 33t22 30.5q1 12 1 21v15q0 7 -0.5 13.5t-0.5 15.5q-38 -23 -71.5 -31t-77.5 -8q-50 0 -80.5 17t-48 41t-23.5 51t-6 47q0 19 6 51t17.5 68.5t29 74t40.5 68t51.5 49.5
t62.5 19q42 0 81 -37t68.5 -96.5t47.5 -133t18 -145.5zM359 440q-4 22 -12 51.5t-20.5 56t-28.5 44.5t-35 18q-16 0 -31.5 -15t-27.5 -35.5t-19.5 -42t-7.5 -34.5q0 -14 3 -27.5t11.5 -24.5t24 -18t41.5 -7q41 0 62.5 9.5t39.5 24.5zM271 895l-129 88l95 131l133 -90z
M273 -410l-131 89l96 131l131 -91z" />
    <glyph glyph-name="uni06A3.medi" unicode="&#x6a3;" horiz-adv-x="577" 
d="M556 0q-31 0 -68.5 5t-76 16t-75.5 28t-65 41q-137 -90 -260 -90h-41v148h58q15 0 32.5 2t35.5 6.5t35 11.5t30 16q-37 38 -49.5 85.5t-12.5 90.5q0 33 12 66t32 63t45.5 56t53 45t55 30t50.5 11q31 0 62 -18.5t55.5 -50.5t39.5 -74.5t15 -90.5q0 -38 -11 -72t-28.5 -63
t-38.5 -51.5t-41 -36.5q35 -15 77.5 -20.5t82.5 -5.5h47v-148h-51zM411 356q0 22 -8 44t-20.5 40t-28 29.5t-29.5 11.5q-18 0 -39 -10.5t-39.5 -27t-30.5 -36.5t-12 -38t9 -39t22.5 -40t29.5 -31.5t31 -12.5q12 0 31.5 11.5t38 28.5t32 36t13.5 34zM325 801l-131 86l96 131
l133 -90zM325 -410l-131 89l96 131l131 -91z" />
    <glyph glyph-name="uni06A3.fina" unicode="&#x6a3;" horiz-adv-x="1690" 
d="M1615 0q-35 0 -74.5 5.5t-79 17t-75.5 29.5t-64 42q-61 -32 -142.5 -57.5t-173 -43t-188 -27t-186.5 -9.5q-131 0 -230.5 13.5t-166.5 47.5t-101 91.5t-34 144.5q0 23 4.5 48.5t13 50.5t19.5 48t24 41l94 -28q-18 -31 -28.5 -67t-10.5 -64q0 -36 12 -68t49 -55.5t105 -37
t180 -13.5h103q193 0 331 19t214 56q-21 18 -33.5 39.5t-18.5 44.5t-8 47t-2 45q0 33 12 66t32 63t45.5 56t53 45t55 30t50.5 11q31 0 62 -19t55.5 -52t39.5 -77.5t15 -95.5q0 -29 -10.5 -62t-28 -64t-39.5 -56t-45 -37q19 -9 40.5 -13.5t43.5 -5.5q17 -2 34 -2q5 0 11 1
h146v-148h-105zM1459 369q0 21 -7 41t-19 35.5t-27.5 25.5t-32.5 10q-20 0 -41 -10.5t-38.5 -27t-29 -36.5t-11.5 -38t9 -39t22.5 -39t29.5 -30.5t31 -12.5q18 0 38 12.5t37 30.5t28 39t11 39zM1357 827l-129 86l94 132l133 -91zM826 -410l-131 89l96 131l131 -91z" />
    <glyph glyph-name="uni06A5.init" unicode="&#x6a5;" horiz-adv-x="588" 
d="M501 348q0 -94 -23.5 -160t-69 -108t-112.5 -61t-154 -19h-172v148h156q54 0 101 10.5t82 26t55 33t22 30.5q1 12 1 21v15q0 7 -0.5 13.5t-0.5 15.5q-38 -23 -71.5 -31t-77.5 -8q-50 0 -80.5 17t-48 41t-23.5 51t-6 47q0 19 6 51t17.5 68.5t29 74t40.5 68t51.5 49.5
t62.5 19q42 0 81 -37t68.5 -96.5t47.5 -133t18 -145.5zM359 440q-4 22 -12 51.5t-20.5 56t-28.5 44.5t-35 18q-16 0 -31.5 -15t-27.5 -35.5t-19.5 -42t-7.5 -34.5q0 -14 3 -27.5t11.5 -24.5t24 -18t41.5 -7q41 0 62.5 9.5t39.5 24.5zM281 -360l111 -80l-76 -97l-107 78z
M158 -178l111 -82l74 96l110 -78l-82 -102l-106 80l-74 -92l-111 78z" />
    <glyph glyph-name="uni06A5.medi" unicode="&#x6a5;" horiz-adv-x="577" 
d="M556 0q-31 0 -68.5 5t-76 16t-75.5 28t-65 41q-137 -90 -260 -90h-41v148h58q15 0 32.5 2t35.5 6.5t35 11.5t30 16q-37 38 -49.5 85.5t-12.5 90.5q0 33 12 66t32 63t45.5 56t53 45t55 30t50.5 11q31 0 62 -18.5t55.5 -50.5t39.5 -74.5t15 -90.5q0 -38 -11 -72t-28.5 -63
t-38.5 -51.5t-41 -36.5q35 -15 77.5 -20.5t82.5 -5.5h47v-148h-51zM411 356q0 22 -8 44t-20.5 40t-28 29.5t-29.5 11.5q-18 0 -39 -10.5t-39.5 -27t-30.5 -36.5t-12 -38t9 -39t22.5 -40t29.5 -31.5t31 -12.5q12 0 31.5 11.5t38 28.5t32 36t13.5 34zM281 -360l111 -80
l-76 -97l-107 78zM158 -178l111 -82l74 96l110 -78l-82 -102l-106 80l-74 -92l-111 78z" />
    <glyph glyph-name="uni06A5.fina" unicode="&#x6a5;" horiz-adv-x="1690" 
d="M1615 0q-35 0 -74.5 5.5t-79 17t-75.5 29.5t-64 42q-61 -32 -142.5 -57.5t-173 -43t-188 -27t-186.5 -9.5q-131 0 -230.5 13.5t-166.5 47.5t-101 91.5t-34 144.5q0 23 4.5 48.5t13 50.5t19.5 48t24 41l94 -28q-18 -31 -28.5 -67t-10.5 -64q0 -36 12 -68t49 -55.5t105 -37
t180 -13.5h103q193 0 331 19t214 56q-21 18 -33.5 39.5t-18.5 44.5t-8 47t-2 45q0 33 12 66t32 63t45.5 56t53 45t55 30t50.5 11q31 0 62 -19t55.5 -52t39.5 -77.5t15 -95.5q0 -29 -10.5 -62t-28 -64t-39.5 -56t-45 -37q19 -9 40.5 -13.5t43.5 -5.5q17 -2 34 -2q5 0 11 1
h146v-148h-105zM1459 369q0 21 -7 41t-19 35.5t-27.5 25.5t-32.5 10q-20 0 -41 -10.5t-38.5 -27t-29 -36.5t-11.5 -38t9 -39t22.5 -39t29.5 -30.5t31 -12.5q18 0 38 12.5t37 30.5t28 39t11 39zM1361 -360l111 -80l-76 -97l-107 78zM1238 -178l111 -82l74 96l110 -78
l-82 -102l-106 80l-74 -92l-111 78z" />
    <glyph glyph-name="uni06A7.init" unicode="&#x6a7;" horiz-adv-x="588" 
d="M501 348q0 -94 -23.5 -160t-69 -108t-112.5 -61t-154 -19h-172v148h156q54 0 101 10.5t82 26t55 33t22 30.5q1 12 1 21v15q0 7 -0.5 13.5t-0.5 15.5q-38 -23 -71.5 -31t-77.5 -8q-50 0 -80.5 17t-48 41t-23.5 51t-6 47q0 19 6 51t17.5 68.5t29 74t40.5 68t51.5 49.5
t62.5 19q42 0 81 -37t68.5 -96.5t47.5 -133t18 -145.5zM359 440q-4 22 -12 51.5t-20.5 56t-28.5 44.5t-35 18q-16 0 -31.5 -15t-27.5 -35.5t-19.5 -42t-7.5 -34.5q0 -14 3 -27.5t11.5 -24.5t24 -18t41.5 -7q41 0 62.5 9.5t39.5 24.5zM271 895l-129 88l95 131l133 -90z" />
    <glyph glyph-name="uni06A7.medi" unicode="&#x6a7;" horiz-adv-x="577" 
d="M556 0q-31 0 -68.5 5t-76 16t-75.5 28t-65 41q-137 -90 -260 -90h-41v148h58q15 0 32.5 2t35.5 6.5t35 11.5t30 16q-37 38 -49.5 85.5t-12.5 90.5q0 33 12 66t32 63t45.5 56t53 45t55 30t50.5 11q31 0 62 -18.5t55.5 -50.5t39.5 -74.5t15 -90.5q0 -38 -11 -72t-28.5 -63
t-38.5 -51.5t-41 -36.5q35 -15 77.5 -20.5t82.5 -5.5h47v-148h-51zM411 356q0 22 -8 44t-20.5 40t-28 29.5t-29.5 11.5q-18 0 -39 -10.5t-39.5 -27t-30.5 -36.5t-12 -38t9 -39t22.5 -40t29.5 -31.5t31 -12.5q12 0 31.5 11.5t38 28.5t32 36t13.5 34zM325 801l-131 86l96 131
l133 -90z" />
    <glyph glyph-name="uni06A7.fina" unicode="&#x6a7;" horiz-adv-x="1146" 
d="M1098 0q-12 -107 -55.5 -200.5t-113 -162.5t-162.5 -109t-205 -40q-93 0 -164 20t-123 53.5t-86.5 78.5t-55.5 94t-29.5 99.5t-8.5 96.5q0 32 5.5 69t16 74t25.5 72.5t34 65.5l101 -41q-14 -26 -25.5 -53t-19.5 -57t-12.5 -65t-4.5 -77q0 -55 23 -105.5t69 -89.5
t115.5 -62t161.5 -23q77 0 145 24.5t121 72t88.5 116.5t46.5 159h-84q-58 0 -101.5 13t-73 37t-44 57.5t-14.5 73.5q0 41 12 92t36 96t59.5 75.5t82.5 30.5q46 0 86 -29.5t70.5 -77.5t50.5 -108.5t27 -121.5h84v-148h-78zM977 152q-2 37 -12.5 71.5t-26.5 61.5t-34.5 43
t-37.5 16t-34.5 -11.5t-26.5 -28t-17 -35t-6 -31.5q0 -19 5.5 -34.5t19.5 -27t37.5 -18t60.5 -6.5h72zM834 632l-129 88l95 131l133 -90z" />
    <glyph glyph-name="uni06A8.init" unicode="&#x6a8;" horiz-adv-x="588" 
d="M501 348q0 -94 -23.5 -160t-69 -108t-112.5 -61t-154 -19h-172v148h156q54 0 101 10.5t82 26t55 33t22 30.5q1 12 1 21v15q0 7 -0.5 13.5t-0.5 15.5q-38 -23 -71.5 -31t-77.5 -8q-50 0 -80.5 17t-48 41t-23.5 51t-6 47q0 19 6 51t17.5 68.5t29 74t40.5 68t51.5 49.5
t62.5 19q42 0 81 -37t68.5 -96.5t47.5 -133t18 -145.5zM359 440q-4 22 -12 51.5t-20.5 56t-28.5 44.5t-35 18q-16 0 -31.5 -15t-27.5 -35.5t-19.5 -42t-7.5 -34.5q0 -14 3 -27.5t11.5 -24.5t24 -18t41.5 -7q41 0 62.5 9.5t39.5 24.5zM251 1022l-109 79l74 95l106 -78z
M376 837l-111 82l-76 -94l-110 78l81 100l107 -78l74 92l110 -77z" />
    <glyph glyph-name="uni06A8.medi" unicode="&#x6a8;" horiz-adv-x="577" 
d="M556 2q-31 0 -68.5 5t-76 16t-75.5 28t-65 41q-137 -90 -260 -90h-41v148h58q15 0 32.5 2t35.5 6.5t35 11.5t30 16q-37 38 -49.5 85.5t-12.5 90.5q0 33 12 66t32 63t45.5 56t53 45t55 30t50.5 11q31 0 62 -18.5t55.5 -50.5t39.5 -74.5t15 -90.5q0 -38 -11 -72t-28.5 -63
t-38.5 -51.5t-41 -36.5q35 -15 77.5 -20.5t82.5 -5.5h47v-148h-51zM411 358q0 22 -8 44t-20.5 40t-28 29.5t-29.5 11.5q-18 0 -39 -10.5t-39.5 -27t-30.5 -36.5t-12 -38t9 -39t22.5 -40t29.5 -31.5t31 -12.5q12 0 31.5 11.5t38 28.5t32 36t13.5 34zM283 932l-109 79l74 95
l106 -78zM408 747l-111 82l-76 -94l-110 78l81 100l107 -78l74 92l110 -77z" />
    <glyph glyph-name="uni06A8.fina" unicode="&#x6a8;" horiz-adv-x="1146" 
d="M1098 0q-12 -107 -55.5 -200.5t-113 -162.5t-162.5 -109t-205 -40q-93 0 -164 20t-123 53.5t-86.5 78.5t-55.5 94t-29.5 99.5t-8.5 96.5q0 32 5.5 69t16 74t25.5 72.5t34 65.5l101 -41q-14 -26 -25.5 -53t-19.5 -57t-12.5 -65t-4.5 -77q0 -55 23 -105.5t69 -89.5
t115.5 -62t161.5 -23q77 0 145 24.5t121 72t88.5 116.5t46.5 159h-84q-58 0 -101.5 13t-73 37t-44 57.5t-14.5 73.5q0 41 12 92t36 96t59.5 75.5t82.5 30.5q46 0 86 -29.5t70.5 -77.5t50.5 -108.5t27 -121.5h84v-148h-78zM977 152q-2 37 -12.5 71.5t-26.5 61.5t-34.5 43
t-37.5 16t-34.5 -11.5t-26.5 -28t-17 -35t-6 -31.5q0 -19 5.5 -34.5t19.5 -27t37.5 -18t60.5 -6.5h72zM799 773l-109 79l74 95l106 -78zM924 588l-111 82l-76 -94l-110 78l81 100l107 -78l74 92l110 -77z" />
    <glyph glyph-name="uni06AA.init" unicode="&#x6aa;" horiz-adv-x="750" 
d="M665 1025q-60 -28 -123 -58.5t-126 -63t-118 -62.5t-99 -56t-69 -44q17 -14 44.5 -37t59.5 -53.5t65 -68t59.5 -81t43 -91.5t16.5 -99q0 -13 -4.5 -41.5t-18 -63t-39 -71t-68 -66.5t-104 -49.5t-147.5 -19.5h-67v148h114q104 0 161 38t57 109q0 47 -25 91t-66.5 89
t-96 93t-113.5 102q1 15 4 39.5t7.5 48.5t10.5 42.5t12 22.5q39 27 94.5 61t121 71t137 75t143 74t139.5 68q31 15 60 28l-20 -155q-22 -10 -45 -20z" />
    <glyph glyph-name="uni06AA.medi" unicode="&#x6aa;" horiz-adv-x="876" 
d="M592 969q-68 -33 -136.5 -67.5t-128.5 -67t-107 -61t-72 -48.5q42 -35 80 -66t72.5 -61t66.5 -61t64 -68q48 -56 99 -113t103 -103.5t104 -75.5t103 -29h66v-148h-62q-43 0 -94.5 12.5t-110 48.5t-122 101.5t-129.5 171.5q5 -32 5 -62q0 -51 -15 -91q-23 -64 -72 -104
t-118 -58.5t-149 -18.5h-69v148h61q133 0 203 36.5t70 126.5q0 43 -19.5 79t-54.5 74t-85.5 82t-111.5 103q1 15 2 40t3 49t6 43t10 24q44 32 107 70.5t136 79.5t151 82.5t152 78.5q66 33 127 61l-20 -154q-56 -25 -115 -54z" />
    <glyph glyph-name="uni06AA.fina" unicode="&#x6aa;" horiz-adv-x="1796" 
d="M1500 973q-68 -33 -136.5 -67.5t-128.5 -67t-107 -61t-72 -48.5q42 -35 80 -66t73 -61t68 -62.5t66 -70.5q48 -57 100.5 -114.5t106 -103t106 -74.5t100.5 -29h70v-148h-61q-41 0 -92 9t-110 43.5t-125 102.5t-136 185q4 -24 4 -46q0 -37 -11 -68q-17 -50 -52.5 -89
t-86 -67.5t-108 -48.5t-118.5 -32.5t-117 -19.5t-103 -9.5t-78 -2.5q-131 0 -230.5 13.5t-166.5 47.5t-101 91.5t-34 144.5q0 23 4.5 48.5t13 50.5t19.5 48t24 41l94 -28q-9 -15 -16 -33.5t-12.5 -36.5t-8 -34t-2.5 -27q0 -33 12 -64.5t49 -55.5t105 -39t180 -15h29
q149 0 265 17t196 45.5t122 65t42 74.5q0 51 -19.5 88.5t-55.5 73.5t-86.5 77.5t-111.5 100.5q0 15 1 40t3 49.5t5.5 43.5t9.5 23q45 32 108.5 70.5t136 80t150.5 83t152 79t141 68.5l-20 -154q-63 -28 -130 -61z" />
    <glyph glyph-name="uni06AB.init" unicode="&#x6ab;" horiz-adv-x="737" 
d="M563 940q-96 -42 -179.5 -83t-148 -76.5t-95.5 -57.5q18 -15 45.5 -37t58 -51t61 -64.5t55 -76.5t39.5 -87.5t15 -97.5q0 -31 -4 -65.5t-17.5 -69t-38 -66t-66.5 -55.5t-103.5 -38.5t-147.5 -14.5h-67v148h114q104 0 161 34t57 105q0 35 -17 72t-52 80t-89 93.5
t-129 112.5q1 15 4 38t8 45t11 39.5t12 21.5q67 48 154 100.5t183 103.5t195 98q63 30 123 55l-8 -150q-66 -26 -134 -56zM584 1200q-91 -45 -185.5 -94.5t-186.5 -99.5q-79 -43 -148 -78l14 91q60 34 134 74q89 49 184 100t190 99q70 36 131 66l-5 -98q-59 -26 -128 -60z
" />
    <glyph glyph-name="uni06AB.medi" unicode="&#x6ab;" horiz-adv-x="876" 
d="M714 1231q-60 -27 -127 -59.5t-138 -68t-139.5 -70.5t-132 -67t-115.5 -57l10 84q47 25 108.5 58t130.5 69t141.5 73.5t142 72.5t132.5 65q9 4 17 9l-6 -98q-11 -6 -24 -11zM703 987q-62 -25 -128 -54t-131.5 -61t-123 -62.5t-102.5 -57.5t-70 -47q42 -36 80 -63.5
t72.5 -53.5t66.5 -54t64 -65q48 -56 99 -113t103 -103.5t104 -75.5t103 -29h66v-148h-62q-43 0 -94.5 12.5t-110 48.5t-122 101.5t-129.5 171.5q5 -32 5 -62q0 -51 -15 -91q-23 -64 -72 -104t-118 -58.5t-149 -18.5h-69v148h61q133 0 203 36.5t70 126.5q0 33 -23.5 68
t-62 73.5t-88 80t-101.5 86.5q1 15 2.5 41t4.5 52t7.5 46.5t10.5 25.5q44 31 106 68t133 75t146.5 76t147.5 71.5t136 61.5l10 4l-9 -145q-10 -4 -21 -8z" />
    <glyph glyph-name="uni06AB.fina" unicode="&#x6ab;" horiz-adv-x="1796" 
d="M1499 1175q-67 -33 -138 -68.5t-139.5 -70.5t-132 -67.5t-115.5 -57.5l10 86q47 25 108.5 58t130.5 69t142 74t143 73q61 30 118 57l-5 -96q-58 -26 -122 -57zM1487 936q-66 -29 -131.5 -60.5t-123 -62t-102.5 -57.5t-70 -47q42 -36 79.5 -63.5t72 -54.5t67 -56t64.5 -66
q48 -57 100.5 -114.5t106 -103t106 -74.5t100.5 -29h70v-148h-61q-41 0 -92 9t-110 43.5t-125 102.5t-136 185q4 -24 4 -46q0 -37 -11 -68q-17 -50 -52.5 -89t-86 -67.5t-108 -48.5t-118.5 -32.5t-117 -19.5t-103 -9.5t-78 -2.5q-131 0 -230.5 13.5t-166.5 47.5t-101 91.5
t-34 144.5q0 23 4.5 48.5t13 50.5t19.5 48t24 41l94 -28q-9 -15 -16 -33.5t-12.5 -36.5t-8 -34t-2.5 -27q0 -33 12 -64.5t49 -55.5t105 -39t180 -15h29q149 0 265 17t196 45.5t122 65t42 74.5q0 51 -23.5 89t-61.5 72.5t-88 70t-102 80.5q1 15 2.5 41t4.5 52t7.5 46t10.5 24
q45 32 107 68.5t133 75t146.5 76.5t147.5 72q60 28 115 52l-9 -144q-58 -23 -119 -50z" />
    <glyph glyph-name="uni06AC.init" unicode="&#x6ac;" horiz-adv-x="750" 
d="M665 1025q-60 -28 -123 -58.5t-126 -63t-118 -62.5t-99 -56t-69 -44q17 -14 44.5 -37t59.5 -53.5t65 -68t59.5 -81t43 -91.5t16.5 -99q0 -13 -4.5 -41.5t-18 -63t-39 -71t-68 -66.5t-104 -49.5t-147.5 -19.5h-67v148h114q104 0 161 38t57 109q0 47 -25 91t-66.5 89
t-96 93t-113.5 102q1 15 4 39.5t7.5 48.5t10.5 42.5t12 22.5q39 27 94.5 61t121 71t137 75t143 74t139.5 68q31 15 60 28l-20 -155q-22 -10 -45 -20zM174 1086l-129 88l95 131l133 -90z" />
    <glyph glyph-name="uni06AC.medi" unicode="&#x6ac;" horiz-adv-x="876" 
d="M592 969q-68 -33 -136.5 -67.5t-128.5 -67t-107 -61t-72 -48.5q42 -35 80 -66t72.5 -61t66.5 -61t64 -68q48 -56 99 -113t103 -103.5t104 -75.5t103 -29h66v-148h-62q-43 0 -94.5 12.5t-110 48.5t-122 101.5t-129.5 171.5q5 -32 5 -62q0 -51 -15 -91q-23 -64 -72 -104
t-118 -58.5t-149 -18.5h-69v148h61q133 0 203 36.5t70 126.5q0 43 -19.5 79t-54.5 74t-85.5 82t-111.5 103q1 15 2 40t3 49t6 43t10 24q44 32 107 70.5t136 79.5t151 82.5t152 78.5q66 33 127 61l-20 -154q-56 -25 -115 -54zM199 1083l-129 88l95 131l133 -90z" />
    <glyph glyph-name="uni06AC.fina" unicode="&#x6ac;" horiz-adv-x="1485" 
d="M1451 0q-40 0 -81.5 12.5t-77.5 42t-63.5 78.5t-39.5 121q-21 -58 -65.5 -110.5t-116.5 -93.5t-173.5 -66t-236.5 -27h-24q-116 0 -201 18q-94 19 -154.5 59.5t-89 103t-28.5 145.5q0 24 5.5 52t14 55t19.5 51t22 40l92 -28q-17 -37 -27 -77t-10 -65q0 -38 14.5 -74
t53.5 -64.5t108 -46t177 -17.5h55q116 0 201.5 16t145.5 44t98 65t59 78.5t28 85.5q6 38 6 74v11l-22 717l133 66v-785q0 -171 44.5 -252t129.5 -81h68v-148h-64zM863 547q0 -46 -21.5 -77t-56 -50.5t-77.5 -30t-86 -14.5l-49 78q43 7 78.5 13.5t60 15t38 20t13.5 26.5
q0 12 -15 21t-38 17.5t-49.5 18.5t-49.5 24.5t-38 36t-15 52.5q0 49 40 93t132 73l45 -65q-24 -9 -45.5 -19t-38 -20.5t-26.5 -21t-10 -21.5q0 -13 15.5 -23t38.5 -20t50 -20.5t50 -25t38.5 -34.5t15.5 -47zM1193 1357l-129 88l95 131l133 -90z" />
    <glyph glyph-name="uni06AE.init" unicode="&#x6ae;" horiz-adv-x="750" 
d="M665 1025q-60 -28 -123 -58.5t-126 -63t-118 -62.5t-99 -56t-69 -44q17 -14 44.5 -37t59.5 -53.5t65 -68t59.5 -81t43 -91.5t16.5 -99q0 -13 -4.5 -41.5t-18 -63t-39 -71t-68 -66.5t-104 -49.5t-147.5 -19.5h-67v148h114q104 0 161 38t57 109q0 47 -25 91t-66.5 89
t-96 93t-113.5 102q1 15 4 39.5t7.5 48.5t10.5 42.5t12 22.5q39 27 94.5 61t121 71t137 75t143 74t139.5 68q31 15 60 28l-20 -155q-22 -10 -45 -20zM231 -360l111 -80l-76 -97l-107 78zM108 -178l111 -82l74 96l110 -78l-82 -102l-106 80l-74 -92l-111 78z" />
    <glyph glyph-name="uni06AE.medi" unicode="&#x6ae;" horiz-adv-x="876" 
d="M592 969q-68 -33 -136.5 -67.5t-128.5 -67t-107 -61t-72 -48.5q42 -35 80 -66t72.5 -61t66.5 -61t64 -68q48 -56 99 -113t103 -103.5t104 -75.5t103 -29h66v-148h-62q-43 0 -94.5 12.5t-110 48.5t-122 101.5t-129.5 171.5q5 -32 5 -62q0 -51 -15 -91q-23 -64 -72 -104
t-118 -58.5t-149 -18.5h-69v148h61q133 0 203 36.5t70 126.5q0 43 -19.5 79t-54.5 74t-85.5 82t-111.5 103q1 15 2 40t3 49t6 43t10 24q44 32 107 70.5t136 79.5t151 82.5t152 78.5q66 33 127 61l-20 -154q-56 -25 -115 -54zM231 -360l111 -80l-76 -97l-107 78zM108 -178
l111 -82l74 96l110 -78l-82 -102l-106 80l-74 -92l-111 78z" />
    <glyph glyph-name="uni06AE.fina" unicode="&#x6ae;" horiz-adv-x="1485" 
d="M1451 0q-40 0 -81.5 12.5t-77.5 42t-63.5 78.5t-39.5 121q-21 -58 -65.5 -110.5t-116.5 -93.5t-173.5 -66t-236.5 -27h-24q-116 0 -201 18q-94 19 -154.5 59.5t-89 103t-28.5 145.5q0 24 5.5 52t14 55t19.5 51t22 40l92 -28q-17 -37 -27 -77t-10 -65q0 -38 14.5 -74
t53.5 -64.5t108 -46t177 -17.5h55q116 0 201.5 16t145.5 44t98 65t59 78.5t28 85.5q6 38 6 74v11l-22 717l133 66v-785q0 -171 44.5 -252t129.5 -81h68v-148h-64zM863 547q0 -46 -21.5 -77t-56 -50.5t-77.5 -30t-86 -14.5l-49 78q43 7 78.5 13.5t60 15t38 20t13.5 26.5
q0 12 -15 21t-38 17.5t-49.5 18.5t-49.5 24.5t-38 36t-15 52.5q0 49 40 93t132 73l45 -65q-24 -9 -45.5 -19t-38 -20.5t-26.5 -21t-10 -21.5q0 -13 15.5 -23t38.5 -20t50 -20.5t50 -25t38.5 -34.5t15.5 -47zM691 -360l111 -80l-76 -97l-107 78zM568 -178l111 -82l74 96
l110 -78l-82 -102l-106 80l-74 -92l-111 78z" />
    <glyph glyph-name="uni06B0.init" unicode="&#x6b0;" horiz-adv-x="737" 
d="M584 1200q-91 -45 -185.5 -94.5t-186.5 -99.5q-79 -43 -148 -78l14 91q60 34 134 74q89 49 184 100t190 99q70 36 131 66l-5 -98q-59 -26 -128 -60zM550 775q0 19 -11.5 37t-27.5 34.5t-34 30t-31 20.5q-56 -87 -56 -114q0 -33 19 -51.5t58 -18.5q12 0 26.5 3.5t26.5 11
t21 19.5t9 28zM432 1017q74 38 150 74q63 30 123 55l-8 -150q-66 -26 -134 -56l-18 -8q16 -15 29 -29q25 -30 39.5 -61.5t14.5 -64.5q0 -42 -16 -71t-40 -47.5t-54.5 -27t-58.5 -8.5q-33 0 -58.5 10t-43 27t-26.5 39t-9 46q0 27 4.5 47.5t14.5 40.5l2 4q-59 -30 -107 -56
q-65 -36 -96 -58q18 -15 45.5 -37t58 -51t61 -64.5t55 -76.5t39.5 -87.5t15 -97.5q0 -31 -4 -65.5t-17.5 -69t-38 -66t-66.5 -55.5t-103.5 -38.5t-147.5 -14.5h-67v148h114q104 0 161 34t57 105q0 35 -17 72t-52 80t-89 93.5t-129 112.5q1 15 4 38t8 45t11 39.5t12 21.5
q67 48 154 100.5t183 103.5q22 12 45 23v1z" />
    <glyph glyph-name="uni06B0.medi" unicode="&#x6b0;" horiz-adv-x="876" 
d="M714 1231q-60 -27 -127 -59.5t-138 -68t-139.5 -70.5t-132 -67t-115.5 -57l10 84q47 25 108.5 58t130.5 69t141.5 73.5t142 72.5t132.5 65q9 4 17 9l-6 -98q-11 -6 -24 -11zM594 776q0 19 -11.5 37t-27.5 34.5t-34 30t-31 20.5q-56 -87 -56 -114q0 -33 19 -51.5t58 -18.5
q12 0 26.5 3.5t26.5 11t21 19.5t9 28zM391 846q-37 -19 -70 -36q-58 -31 -103 -58t-70 -47q42 -36 80 -63.5t72.5 -53.5t66.5 -54t64 -65q48 -56 99 -113t103 -103.5t104 -75.5t103 -29h66v-148h-62q-43 0 -94.5 12.5t-110 48.5t-122 101.5t-129.5 171.5q5 -32 5 -62
q0 -51 -15 -91q-23 -64 -72 -104t-118 -58.5t-149 -18.5h-69v148h61q133 0 203 36.5t70 126.5q0 33 -23.5 68t-62 73.5t-88 80t-101.5 86.5q1 15 2.5 41t4.5 52t7.5 46.5t10.5 25.5q44 31 106 68t133 75t146.5 76t147.5 71.5t136 61.5l10 4l-9 -145q-10 -4 -21 -8
q-57 -23 -118 -50q18 -16 33 -33q25 -30 39.5 -61.5t14.5 -64.5q0 -42 -16 -71t-40 -47.5t-54.5 -27t-58.5 -8.5q-33 0 -58.5 10t-43 27t-26.5 39t-9 46q0 27 4.5 47.5t14.5 40.5q2 6 6 12z" />
    <glyph glyph-name="uni06B0.fina" unicode="&#x6b0;" horiz-adv-x="1796" 
d="M1499 1175q-67 -33 -138 -68.5t-139.5 -70.5t-132 -67.5t-115.5 -57.5l10 86q47 25 108.5 58t130.5 69t142 74t143 73q61 30 118 57l-5 -96q-58 -26 -122 -57zM1489 771q0 19 -11.5 37t-27.5 34.5t-34 30t-31 20.5q-56 -87 -56 -114q0 -33 19 -51.5t58 -18.5
q12 0 26.5 3.5t26.5 11t21 19.5t9 28zM1286 841q-27 -14 -53 -27q-58 -31 -103 -58t-70 -47q42 -36 79.5 -63.5t72 -54.5t67 -56t64.5 -66q48 -57 100.5 -114.5t106 -103t106 -74.5t100.5 -29h70v-148h-61q-41 0 -92 9t-110 43.5t-125 102.5t-136 185q4 -24 4 -46
q0 -37 -11 -68q-17 -50 -52.5 -89t-86 -67.5t-108 -48.5t-118.5 -32.5t-117 -19.5t-103 -9.5t-78 -2.5q-131 0 -230.5 13.5t-166.5 47.5t-101 91.5t-34 144.5q0 23 4.5 48.5t13 50.5t19.5 48t24 41l94 -28q-9 -15 -16 -33.5t-12.5 -36.5t-8 -34t-2.5 -27q0 -33 12 -64.5
t49 -55.5t105 -39t180 -15h29q149 0 265 17t196 45.5t122 65t42 74.5q0 51 -23.5 89t-61.5 72.5t-88 70t-102 80.5q1 15 2.5 41t4.5 52t7.5 46t10.5 24q45 32 107 68.5t133 75t146.5 76.5t147.5 72q60 28 115 52l-9 -144q-58 -23 -119 -50q-4 -2 -8 -3q19 -17 34 -34
q25 -30 39.5 -61.5t14.5 -64.5q0 -42 -16 -71t-40 -47.5t-54.5 -27t-58.5 -8.5q-33 0 -58.5 10t-43 27t-26.5 39t-9 46q0 27 4.5 47.5t14.5 40.5z" />
    <glyph glyph-name="uni06B2.init" unicode="&#x6b2;" horiz-adv-x="737" 
d="M563 940q-96 -42 -179.5 -83t-148 -76.5t-95.5 -57.5q18 -15 45.5 -37t58 -51t61 -64.5t55 -76.5t39.5 -87.5t15 -97.5q0 -31 -4 -65.5t-17.5 -69t-38 -66t-66.5 -55.5t-103.5 -38.5t-147.5 -14.5h-67v148h114q104 0 161 34t57 105q0 35 -17 72t-52 80t-89 93.5
t-129 112.5q1 15 4 38t8 45t11 39.5t12 21.5q67 48 154 100.5t183 103.5t195 98q63 30 123 55l-8 -150q-66 -26 -134 -56zM584 1200q-91 -45 -185.5 -94.5t-186.5 -99.5q-79 -43 -148 -78l14 91q60 34 134 74q89 49 184 100t190 99q70 36 131 66l-5 -98q-59 -26 -128 -60z
M108 -178l111 -82l74 96l110 -78l-82 -102l-106 80l-74 -92l-111 78z" />
    <glyph glyph-name="uni06B2.medi" unicode="&#x6b2;" horiz-adv-x="876" 
d="M714 1231q-60 -27 -127 -59.5t-138 -68t-139.5 -70.5t-132 -67t-115.5 -57l10 84q47 25 108.5 58t130.5 69t141.5 73.5t142 72.5t132.5 65q9 4 17 9l-6 -98q-11 -6 -24 -11zM703 987q-62 -25 -128 -54t-131.5 -61t-123 -62.5t-102.5 -57.5t-70 -47q42 -36 80 -63.5
t72.5 -53.5t66.5 -54t64 -65q48 -56 99 -113t103 -103.5t104 -75.5t103 -29h66v-148h-62q-43 0 -94.5 12.5t-110 48.5t-122 101.5t-129.5 171.5q5 -32 5 -62q0 -51 -15 -91q-23 -64 -72 -104t-118 -58.5t-149 -18.5h-69v148h61q133 0 203 36.5t70 126.5q0 33 -23.5 68
t-62 73.5t-88 80t-101.5 86.5q1 15 2.5 41t4.5 52t7.5 46.5t10.5 25.5q44 31 106 68t133 75t146.5 76t147.5 71.5t136 61.5l10 4l-9 -145q-10 -4 -21 -8zM108 -178l111 -82l74 96l110 -78l-82 -102l-106 80l-74 -92l-111 78z" />
    <glyph glyph-name="uni06B2.fina" unicode="&#x6b2;" horiz-adv-x="1796" 
d="M1499 1175q-67 -33 -138 -68.5t-139.5 -70.5t-132 -67.5t-115.5 -57.5l10 86q47 25 108.5 58t130.5 69t142 74t143 73q61 30 118 57l-5 -96q-58 -26 -122 -57zM1487 936q-66 -29 -131.5 -60.5t-123 -62t-102.5 -57.5t-70 -47q42 -36 79.5 -63.5t72 -54.5t67 -56t64.5 -66
q48 -57 100.5 -114.5t106 -103t106 -74.5t100.5 -29h70v-148h-61q-41 0 -92 9t-110 43.5t-125 102.5t-136 185q4 -24 4 -46q0 -37 -11 -68q-17 -50 -52.5 -89t-86 -67.5t-108 -48.5t-118.5 -32.5t-117 -19.5t-103 -9.5t-78 -2.5q-131 0 -230.5 13.5t-166.5 47.5t-101 91.5
t-34 144.5q0 23 4.5 48.5t13 50.5t19.5 48t24 41l94 -28q-9 -15 -16 -33.5t-12.5 -36.5t-8 -34t-2.5 -27q0 -33 12 -64.5t49 -55.5t105 -39t180 -15h29q149 0 265 17t196 45.5t122 65t42 74.5q0 51 -23.5 89t-61.5 72.5t-88 70t-102 80.5q1 15 2.5 41t4.5 52t7.5 46t10.5 24
q45 32 107 68.5t133 75t146.5 76.5t147.5 72q60 28 115 52l-9 -144q-58 -23 -119 -50zM628 -178l111 -82l74 96l110 -78l-82 -102l-106 80l-74 -92l-111 78z" />
    <glyph glyph-name="uni06B4.init" unicode="&#x6b4;" horiz-adv-x="737" 
d="M563 940q-96 -42 -179.5 -83t-148 -76.5t-95.5 -57.5q18 -15 45.5 -37t58 -51t61 -64.5t55 -76.5t39.5 -87.5t15 -97.5q0 -31 -4 -65.5t-17.5 -69t-38 -66t-66.5 -55.5t-103.5 -38.5t-147.5 -14.5h-67v148h114q104 0 161 34t57 105q0 35 -17 72t-52 80t-89 93.5
t-129 112.5q1 15 4 38t8 45t11 39.5t12 21.5q67 48 154 100.5t183 103.5t195 98q63 30 123 55l-8 -150q-66 -26 -134 -56zM584 1200q-91 -45 -185.5 -94.5t-186.5 -99.5q-79 -43 -148 -78l14 91q60 34 134 74q89 49 184 100t190 99q70 36 131 66l-5 -98q-59 -26 -128 -60z
M195 1418l-109 79l74 95l106 -78zM320 1233l-111 82l-76 -94l-110 78l81 100l107 -78l74 92l110 -77z" />
    <glyph glyph-name="uni06B4.medi" unicode="&#x6b4;" horiz-adv-x="876" 
d="M714 1231q-60 -27 -127 -59.5t-138 -68t-139.5 -70.5t-132 -67t-115.5 -57l10 84q47 25 108.5 58t130.5 69t141.5 73.5t142 72.5t132.5 65q9 4 17 9l-6 -98q-11 -6 -24 -11zM703 987q-62 -25 -128 -54t-131.5 -61t-123 -62.5t-102.5 -57.5t-70 -47q42 -36 80 -63.5
t72.5 -53.5t66.5 -54t64 -65q48 -56 99 -113t103 -103.5t104 -75.5t103 -29h66v-148h-62q-43 0 -94.5 12.5t-110 48.5t-122 101.5t-129.5 171.5q5 -32 5 -62q0 -51 -15 -91q-23 -64 -72 -104t-118 -58.5t-149 -18.5h-69v148h61q133 0 203 36.5t70 126.5q0 33 -23.5 68
t-62 73.5t-88 80t-101.5 86.5q1 15 2.5 41t4.5 52t7.5 46.5t10.5 25.5q44 31 106 68t133 75t146.5 76t147.5 71.5t136 61.5l10 4l-9 -145q-10 -4 -21 -8zM215 1418l-109 79l74 95l106 -78zM340 1233l-111 82l-76 -94l-110 78l81 100l107 -78l74 92l110 -77z" />
    <glyph glyph-name="uni06B4.fina" unicode="&#x6b4;" horiz-adv-x="1796" 
d="M1499 1175q-67 -33 -138 -68.5t-139.5 -70.5t-132 -67.5t-115.5 -57.5l10 86q47 25 108.5 58t130.5 69t142 74t143 73q61 30 118 57l-5 -96q-58 -26 -122 -57zM1487 936q-66 -29 -131.5 -60.5t-123 -62t-102.5 -57.5t-70 -47q42 -36 79.5 -63.5t72 -54.5t67 -56t64.5 -66
q48 -57 100.5 -114.5t106 -103t106 -74.5t100.5 -29h70v-148h-61q-41 0 -92 9t-110 43.5t-125 102.5t-136 185q4 -24 4 -46q0 -37 -11 -68q-17 -50 -52.5 -89t-86 -67.5t-108 -48.5t-118.5 -32.5t-117 -19.5t-103 -9.5t-78 -2.5q-131 0 -230.5 13.5t-166.5 47.5t-101 91.5
t-34 144.5q0 23 4.5 48.5t13 50.5t19.5 48t24 41l94 -28q-9 -15 -16 -33.5t-12.5 -36.5t-8 -34t-2.5 -27q0 -33 12 -64.5t49 -55.5t105 -39t180 -15h29q149 0 265 17t196 45.5t122 65t42 74.5q0 51 -23.5 89t-61.5 72.5t-88 70t-102 80.5q1 15 2.5 41t4.5 52t7.5 46t10.5 24
q45 32 107 68.5t133 75t146.5 76.5t147.5 72q60 28 115 52l-9 -144q-58 -23 -119 -50zM1075 1418l-109 79l74 95l106 -78zM1200 1233l-111 82l-76 -94l-110 78l81 100l107 -78l74 92l110 -77z" />
    <glyph glyph-name="uni06B5.init" unicode="&#x6b5;" horiz-adv-x="421" 
d="M294 432q0 -79 -7 -156.5t-33 -138.5t-78.5 -99t-143.5 -38h-62v148h64q50 0 80.5 15t47 51t20.5 96q2 34 2 79q0 33 -1 72l-22 739l133 66v-834zM36 1679q3 6 6 13t6.5 14.5t9.5 16.5q25 -19 52 -46.5t51 -59t40 -65t24 -59.5q6 28 23 61t41 65t50 59t57 45
q7 -16 13.5 -30.5t11.5 -24.5q-15 -11 -33.5 -28.5t-37 -40t-36 -49.5t-31.5 -57t-23.5 -62.5t-12.5 -65.5h-43q-2 33 -12 65.5t-24 62.5t-32 57t-36 49.5t-36 40t-33 28.5q2 5 5 11z" />
    <glyph glyph-name="uni06B5.medi" unicode="&#x6b5;" horiz-adv-x="469" 
d="M435 0q-24 0 -50 6.5t-51.5 22t-48 41t-38.5 63.5q-23 -39 -51 -64.5t-56.5 -41t-56 -21.5t-51.5 -6h-62v148h33q52 0 88.5 12t59 42t32.5 81q7 38 7 92q0 17 -1 35l-22 790l131 66v-807q0 -93 13.5 -153t36 -95.5t51 -49t59.5 -13.5h41v-148h-64zM36 1679q3 6 6 13
t6.5 14.5t9.5 16.5q25 -19 52 -46.5t51 -59t40 -65t24 -59.5q6 28 23 61t41 65t50 59t57 45q7 -16 13.5 -30.5t11.5 -24.5q-15 -11 -33.5 -28.5t-37 -40t-36 -49.5t-31.5 -57t-23.5 -62.5t-12.5 -65.5h-43q-2 33 -12 65.5t-24 62.5t-32 57t-36 49.5t-36 40t-33 28.5
q2 5 5 11z" />
    <glyph glyph-name="uni06B5.fina" unicode="&#x6b5;" horiz-adv-x="1195" 
d="M1162 0q-41 0 -83.5 17t-76.5 71q0 -69 -8 -139t-29 -134t-57.5 -119t-92.5 -95.5t-135 -64t-184 -23.5q-98 0 -173 30t-125.5 85t-76.5 132t-26 170q0 41 6.5 85t18 86t27 80.5t34.5 68.5l100 -37q-29 -54 -47.5 -120t-18.5 -132q0 -95 28.5 -154t74 -91.5t101.5 -44
t112 -11.5q114 0 186 35t112.5 94t54.5 136q11 66 11 138v21l-32 1110l141 72v-848q0 -139 44 -204.5t140 -65.5h37v-148h-63zM736 1679q3 6 6 13t6.5 14.5t9.5 16.5q25 -19 52 -46.5t51 -59t40 -65t24 -59.5q6 28 23 61t41 65t50 59t57 45q7 -16 13.5 -30.5t11.5 -24.5
q-15 -11 -33.5 -28.5t-37 -40t-36 -49.5t-31.5 -57t-23.5 -62.5t-12.5 -65.5h-43q-2 33 -12 65.5t-24 62.5t-32 57t-36 49.5t-36 40t-33 28.5q2 5 5 11z" />
    <glyph glyph-name="uni06B6.init" unicode="&#x6b6;" horiz-adv-x="421" 
d="M294 432q0 -79 -7 -156.5t-33 -138.5t-78.5 -99t-143.5 -38h-62v148h64q50 0 80.5 15t47 51t20.5 96q2 34 2 79q0 33 -1 72l-22 739l133 66v-834zM226 1365l-129 88l95 131l133 -90z" />
    <glyph glyph-name="uni06B6.medi" unicode="&#x6b6;" horiz-adv-x="469" 
d="M435 0q-24 0 -50 6.5t-51.5 22t-48 41t-38.5 63.5q-23 -39 -51 -64.5t-56.5 -41t-56 -21.5t-51.5 -6h-62v148h33q52 0 88.5 12t59 42t32.5 81q7 38 7 92q0 17 -1 35l-22 790l131 66v-807q0 -93 13.5 -153t36 -95.5t51 -49t59.5 -13.5h41v-148h-64zM236 1365l-129 88
l95 131l133 -90z" />
    <glyph glyph-name="uni06B6.fina" unicode="&#x6b6;" horiz-adv-x="1195" 
d="M1162 0q-41 0 -83.5 17t-76.5 71q0 -69 -8 -139t-29 -134t-57.5 -119t-92.5 -95.5t-135 -64t-184 -23.5q-98 0 -173 30t-125.5 85t-76.5 132t-26 170q0 41 6.5 85t18 86t27 80.5t34.5 68.5l100 -37q-29 -54 -47.5 -120t-18.5 -132q0 -95 28.5 -154t74 -91.5t101.5 -44
t112 -11.5q114 0 186 35t112.5 94t54.5 136q11 66 11 138v21l-32 1110l141 72v-848q0 -139 44 -204.5t140 -65.5h37v-148h-63zM936 1365l-129 88l95 131l133 -90z" />
    <glyph glyph-name="uni06B7.init" unicode="&#x6b7;" horiz-adv-x="421" 
d="M294 432q0 -79 -7 -156.5t-33 -138.5t-78.5 -99t-143.5 -38h-62v148h64q50 0 80.5 15t47 51t20.5 96q2 34 2 79q0 33 -1 72l-22 739l133 66v-834zM200 1553l-109 79l74 95l106 -78zM325 1368l-111 82l-76 -94l-110 78l81 100l107 -78l74 92l110 -77z" />
    <glyph glyph-name="uni06B7.medi" unicode="&#x6b7;" horiz-adv-x="469" 
d="M435 0q-24 0 -50 6.5t-51.5 22t-48 41t-38.5 63.5q-23 -39 -51 -64.5t-56.5 -41t-56 -21.5t-51.5 -6h-62v148h33q52 0 88.5 12t59 42t32.5 81q7 38 7 92q0 17 -1 35l-22 790l131 66v-807q0 -93 13.5 -153t36 -95.5t51 -49t59.5 -13.5h41v-148h-64zM220 1553l-109 79
l74 95l106 -78zM345 1368l-111 82l-76 -94l-110 78l81 100l107 -78l74 92l110 -77z" />
    <glyph glyph-name="uni06B7.fina" unicode="&#x6b7;" horiz-adv-x="1195" 
d="M1162 0q-41 0 -83.5 17t-76.5 71q0 -69 -8 -139t-29 -134t-57.5 -119t-92.5 -95.5t-135 -64t-184 -23.5q-98 0 -173 30t-125.5 85t-76.5 132t-26 170q0 41 6.5 85t18 86t27 80.5t34.5 68.5l100 -37q-29 -54 -47.5 -120t-18.5 -132q0 -95 28.5 -154t74 -91.5t101.5 -44
t112 -11.5q114 0 186 35t112.5 94t54.5 136q11 66 11 138v21l-32 1110l141 72v-848q0 -139 44 -204.5t140 -65.5h37v-148h-63zM920 1553l-109 79l74 95l106 -78zM1045 1368l-111 82l-76 -94l-110 78l81 100l107 -78l74 92l110 -77z" />
    <glyph glyph-name="uni06B8.init" unicode="&#x6b8;" horiz-adv-x="514" 
d="M414 432q0 -79 -7 -156.5t-33 -138.5t-78.5 -99t-143.5 -38h-182v148h184q50 0 80.5 15t47 51t20.5 96q2 34 2 79q0 33 -1 72l-22 739l133 66v-834zM231 -360l111 -80l-76 -97l-107 78zM108 -178l111 -82l74 96l110 -78l-82 -102l-106 80l-74 -92l-111 78z" />
    <glyph glyph-name="uni06B8.medi" unicode="&#x6b8;" horiz-adv-x="569" 
d="M535 0q-24 0 -50 6.5t-51.5 22t-48 41t-38.5 63.5q-23 -39 -51 -64.5t-56.5 -41t-56 -21.5t-51.5 -6h-162v148h133q52 0 88.5 12t59 42t32.5 81q7 38 7 92q0 17 -1 35l-22 790l131 66v-807q0 -93 13.5 -153t36 -95.5t51 -49t59.5 -13.5h41v-148h-64zM241 -360l111 -80
l-76 -97l-107 78zM118 -178l111 -82l74 96l110 -78l-82 -102l-106 80l-74 -92l-111 78z" />
    <glyph glyph-name="uni06B8.fina" unicode="&#x6b8;" horiz-adv-x="1195" 
d="M1162 0q-41 0 -83.5 17t-76.5 71q0 -69 -8 -139t-29 -134t-57.5 -119t-92.5 -95.5t-135 -64t-184 -23.5q-98 0 -173 30t-125.5 85t-76.5 132t-26 170q0 41 6.5 85t18 86t27 80.5t34.5 68.5l100 -37q-29 -54 -47.5 -120t-18.5 -132q0 -95 28.5 -154t74 -91.5t101.5 -44
t112 -11.5q114 0 186 35t112.5 94t54.5 136q11 66 11 138v21l-32 1110l141 72v-848q0 -139 44 -204.5t140 -65.5h37v-148h-63zM572 -788l111 -80l-76 -97l-107 78zM449 -606l111 -82l74 96l110 -78l-82 -102l-106 80l-74 -92l-111 78z" />
    <glyph glyph-name="uni06B9.init" unicode="&#x6b9;" horiz-adv-x="435" 
d="M353 256q0 -25 -4.5 -53.5t-16.5 -57t-32.5 -55t-54 -46.5t-80.5 -32t-111 -12h-84v148h92q134 0 164 57q9 16 9 36q0 48 -52 115l-32 45l102 113q21 -23 39 -53t31.5 -64t21.5 -70.5t8 -70.5zM194 696l-132 86l97 131l133 -90zM193 -410l-131 89l96 131l131 -91z" />
    <glyph glyph-name="uni06B9.medi" unicode="&#x6b9;" horiz-adv-x="551" 
d="M217 580l-131 88l96 131l131 -90zM495 0q-31 0 -64 4t-64 16.5t-57.5 36.5t-44.5 64q-15 -32 -40 -54.5t-54.5 -37.5t-60 -22t-56.5 -7h-84v148h76q26 0 58 6.5t59.5 23t46 44.5t18.5 71v61l103 29q1 -78 14.5 -124.5t38 -71t59 -32t76.5 -7.5h62v-148h-86zM217 -410
l-131 89l96 131l131 -91z" />
    <glyph glyph-name="uni06B9.fina" unicode="&#x6b9;" horiz-adv-x="1161" 
d="M558 352l-123 82l92 125l125 -86zM1121 0q-31 1 -53 9q-27 9 -55 38q1 -23 1 -45q0 -98 -29 -178q-36 -99 -104.5 -167t-163.5 -104t-206 -36q-103 0 -180.5 32.5t-130 88t-79 129.5t-26.5 157q0 28 6.5 65t17.5 77t27 79t35 72l95 -35q-13 -21 -24.5 -51t-20.5 -62
t-14 -63t-5 -53q0 -68 19 -123t58 -93.5t100 -59.5t145 -21q88 0 157 25.5t117 68t73 97.5t25 114q0 75 -26 151t-64 138l111 94q18 -36 37 -72t43 -65.5t51 -44.5q24 -14 58 -14h75v-148h-70zM581 -823l-131 86l96 131l131 -91z" />
    <glyph glyph-name="uni06BC.init" unicode="&#x6bc;" horiz-adv-x="495" 
d="M247 -111q0 19 -11.5 37t-27.5 34.5t-34 30t-31 20.5q-56 -87 -56 -114q0 -33 19 -51.5t58 -18.5q12 0 26.5 3.5t26.5 11t21 19.5t9 28zM219 696l-132 86l97 131l133 -90zM70 0h-100v148h152q134 0 164 57q9 16 9 36q0 48 -52 115l-32 45l102 113q21 -23 39 -53t31.5 -64
t21.5 -70.5t8 -70.5q0 -25 -4.5 -53.5t-16.5 -57t-32.5 -55t-53.5 -46.5q-19 -11 -42 -20q3 -4 7 -7q25 -30 39.5 -61.5t14.5 -64.5q0 -42 -16 -71t-40 -47.5t-54.5 -27t-58.5 -8.5q-33 0 -58.5 10t-43 27t-26.5 39t-9 46q0 27 4.5 47.5t14 40t24.5 41.5q4 5 8 12z" />
    <glyph glyph-name="uni06BC.medi" unicode="&#x6bc;" horiz-adv-x="601" 
d="M247 -111q0 19 -11.5 37t-27.5 34.5t-34 30t-31 20.5q-56 -87 -56 -114q0 -33 19 -51.5t58 -18.5q12 0 26.5 3.5t26.5 11t21 19.5t9 28zM220 580l-131 88l96 131l131 -90zM70 0h-100v148h128q25 0 57 6.5t59.5 23t46.5 44.5t19 71v61l103 29q1 -78 14.5 -124.5t37.5 -71
t58 -32t76 -7.5h62v-148h-84q-32 0 -65 4t-64 16.5t-58 36.5t-45 64q-15 -32 -40 -54q-14 -13 -30 -24q14 -13 26 -26q25 -30 39.5 -61.5t14.5 -64.5q0 -42 -16 -71t-40 -47.5t-54.5 -27t-58.5 -8.5q-33 0 -58.5 10t-43 27t-26.5 39t-9 46q0 27 4.5 47.5t14 40t24.5 41.5
q4 5 8 12z" />
    <glyph glyph-name="uni06BC.fina" unicode="&#x6bc;" horiz-adv-x="1161" 
d="M558 352l-123 82l92 125l125 -86zM661 -590q0 19 -11.5 37t-27.5 34.5t-34 30t-31 20.5q-56 -87 -56 -114q0 -33 19 -51.5t58 -18.5q12 0 26.5 3.5t26.5 11t21 19.5t9 28zM482 -482q-85 4 -151 32q-78 32 -130.5 87.5t-79 129.5t-26.5 157q0 28 6.5 65t17.5 77t27 79
t35 72l95 -35q-13 -21 -24.5 -51t-20.5 -62t-14 -63t-5 -53q0 -68 19 -123t58 -93.5t100 -59.5t145 -21q88 0 157 25.5t117 68t73 97.5t25 114q0 75 -26 151t-64 138l111 94q18 -36 37 -72t43 -65.5t51 -44.5q24 -14 58 -14h75v-148h-70q-31 1 -53 9q-27 9 -55 38
q1 -23 1 -45q0 -98 -29 -178q-36 -99 -104.5 -167t-163.5 -104q-17 -7 -36 -12q2 -2 4 -3q25 -30 39.5 -61.5t14.5 -64.5q0 -42 -16 -71t-40 -47.5t-54.5 -27t-58.5 -8.5q-33 0 -58.5 10t-43 27t-26.5 39t-9 46q0 27 4.5 47.5t14 40t24.5 41.5q3 4 6 9z" />
    <glyph glyph-name="uni06BD.init" unicode="&#x6bd;" horiz-adv-x="475" 
d="M393 256q0 -25 -4.5 -53.5t-16.5 -57t-32.5 -55t-54 -46.5t-80.5 -32t-111 -12h-124v148h132q134 0 164 57q9 16 9 36q0 48 -52 115l-32 45l102 113q21 -23 39 -53t31.5 -64t21.5 -70.5t8 -70.5zM176 854l-109 80l74 96l106 -78zM301 672l-111 82l-76 -94l-110 77l82 101
l106 -80l74 92l111 -78z" />
    <glyph glyph-name="uni06BD.medi" unicode="&#x6bd;" horiz-adv-x="581" 
d="M179 803l-111 80l76 94l106 -78zM302 621l-111 79l-76 -94l-108 78l80 100l106 -77l76 92l111 -78zM525 0q-31 0 -64 4t-64 16.5t-57.5 36.5t-44.5 64q-15 -32 -40 -54.5t-54.5 -37.5t-60 -22t-56.5 -7h-114v148h106q26 0 58 6.5t59.5 23t46 44.5t18.5 71v61l103 29
q1 -78 14.5 -124.5t38 -71t59 -32t76.5 -7.5h62v-148h-86z" />
    <glyph glyph-name="uni06BD.fina" unicode="&#x6bd;" horiz-adv-x="1161" 
d="M1121 0q-31 1 -53 9q-27 9 -55 38q1 -23 1 -45q0 -98 -29 -178q-36 -99 -104.5 -167t-163.5 -104t-206 -36q-103 0 -180.5 32.5t-130 88t-79 129.5t-26.5 157q0 28 6.5 65t17.5 77t27 79t35 72l95 -35q-13 -21 -24.5 -51t-20.5 -62t-14 -63t-5 -53q0 -68 19 -123
t58 -93.5t100 -59.5t145 -21q88 0 157 25.5t117 68t73 97.5t25 114q0 75 -26 151t-64 138l111 94q18 -36 37 -72t43 -65.5t51 -44.5q24 -14 58 -14h75v-148h-70zM521 545l-109 80l74 96l106 -78zM646 363l-111 82l-76 -94l-110 77l82 101l106 -80l74 92l111 -78z" />
    <glyph glyph-name="uni06BF.init" unicode="&#x6bf;" horiz-adv-x="1012" 
d="M921 274q-75 -1 -133.5 -13t-106 -31.5t-88 -44t-80 -50t-81.5 -50t-92.5 -43.5t-113.5 -30.5t-145 -11.5h-111v148h119q75 0 129.5 8t96.5 22t77 32.5t70.5 39t77.5 42t98 42.5q-42 10 -88 29.5t-88.5 39.5t-79.5 35t-62 15q-20 0 -39 -8.5t-36 -21t-32.5 -27
t-27.5 -25.5l-84 49q15 25 39 55.5t52.5 57.5t58.5 45t57 18q46 0 88.5 -14t87.5 -34.5t93.5 -44.5t105 -43.5t123.5 -31.5q54 -11 118 -11q15 0 31 1zM531 752l-129 88l97 131l131 -90zM579 -334l108 -80l-74 -94l-106 78zM456 -152l108 -79l76 94l111 -78l-82 -100
l-107 77l-74 -92l-110 78z" />
    <glyph glyph-name="uni06BF.medi" unicode="&#x6bf;" horiz-adv-x="1101" 
d="M972 0q-52 0 -89 12t-62.5 32t-41.5 45t-25.5 51t-15.5 51t-12 45q-59 -26 -110.5 -53.5t-99.5 -53.5t-94.5 -49.5t-97 -41t-107.5 -28t-124 -10.5h-123v148h119q64 0 117 7.5t99 20.5t88 31t85 38.5t89 43.5t100 47q-59 12 -112.5 33t-99.5 42t-83 36.5t-62 15.5
q-20 0 -37.5 -8t-32.5 -20t-27.5 -26t-21.5 -26l-90 47q15 27 36 59.5t46.5 60.5t54.5 47t60 19q45 0 89.5 -15t93 -37t102.5 -47t118.5 -45.5t142.5 -31.5q51 -8 110 -8q30 0 63 2l-33 -139q-66 0 -111.5 -9.5t-74.5 -23.5q9 -35 26 -57t43.5 -34.5t62 -17.5t81.5 -5h120
v-148h-159zM531 752l-129 88l97 131l131 -90zM579 -334l108 -80l-74 -94l-106 78zM456 -152l108 -79l76 94l111 -78l-82 -100l-107 77l-74 -92l-110 78z" />
    <glyph glyph-name="uni06BF.fina" unicode="&#x6bf;" horiz-adv-x="1088" 
d="M1126 -704q-96 -32 -199 -50t-215 -18q-129 0 -244 25t-202 82t-137.5 150t-50.5 230q0 79 23.5 149.5t63.5 132.5t93 114.5t112.5 95.5t122 75.5t121.5 55.5q-69 20 -126 36q-24 7 -48.5 13.5t-45.5 11.5t-37 8t-23 3q-22 0 -40 -9t-33.5 -23.5t-27.5 -31.5t-22 -33
l-97 43q9 21 28 55.5t45 67t59.5 56.5t72.5 24q45 0 91.5 -11t97 -27t106 -33t119.5 -30t138 -18q26 -2 54 -2q50 0 105 6l-37 -149q-22 -1 -49.5 -2.5t-55.5 -5t-53 -8.5t-43 -13q6 -41 24 -64.5t47 -35.5t67.5 -15t85.5 -3h102v-148h-141q-45 0 -80 10.5t-62 28t-46 40
t-32 46.5q-31 55 -40 125q-112 -38 -206 -93t-161.5 -122.5t-105 -146t-37.5 -162.5q0 -80 31.5 -145t98 -110.5t169.5 -70.5t245 -25q106 0 185.5 11.5t148.5 36.5zM510 752l-131 88l96 131l131 -90zM624 -305l109 -80l-74 -94l-106 78zM501 -121l109 -82l76 94l110 -77
l-82 -101l-106 78l-74 -92l-110 78z" />
    <glyph glyph-name="uni06C2.fina" unicode="&#x6c2;" horiz-adv-x="838" 
d="M157 247q62 45 129 76.5t137 45.5q31 6 61 6q6 1 12 1q28 0 59 -11q37 -14 54 -43.5t24 -62.5q13 -47 37.5 -71.5t59 -32t76.5 -7.5h62v-148h-86q-31 0 -64 4t-64 16.5t-57 36.5q-23 20 -59 105q-36 82 -75 82h-2q-23 0 -50 -8q-45 -13 -84.5 -34t-94 -60.5t-107.5 -86.5
l-22 -20l-51 129q49 42 105 83zM217 503v67l100 41q-28 26 -39.5 46t-11.5 51t14 58t36 47.5t48.5 32t50.5 11.5q31 0 59 -7.5t56 -29.5l-22 -57q-28 9 -52.5 11.5t-44.5 2.5q-11 0 -25.5 -4t-27.5 -11t-22 -16.5t-9 -21.5q0 -31 34 -50.5t85 -19.5q5 0 21 4t38 10
t47.5 13.5t49.5 15.5v-96z" />
    <glyph glyph-name="uni06C3.fina" unicode="&#x6c3;" horiz-adv-x="838" 
d="M157 247q62 45 129 76.5t137 45.5q31 6 61 6q6 1 12 1q28 0 59 -11q37 -14 54 -43.5t24 -62.5q13 -47 37.5 -71.5t59 -32t76.5 -7.5h62v-148h-86q-31 0 -64 4t-64 16.5t-57 36.5q-23 20 -59 105q-36 82 -75 82h-2q-23 0 -50 -8q-45 -13 -84.5 -34t-94 -60.5t-107.5 -86.5
l-22 -20l-51 129q49 42 105 83zM520 564l-113 84l-82 -100l-121 86l92 113l109 -82l80 98l123 -88z" />
    <glyph glyph-name="uni06C4.fina" unicode="&#x6c4;" horiz-adv-x="760" 
d="M514 148q-2 55 -12.5 86.5t-26.5 52.5t-35 31.5t-38 10.5q-17 0 -33 -10.5t-28.5 -27.5t-20 -37.5t-7.5 -40.5q0 -19 8 -31t21.5 -19t31.5 -10t38 -4q32 -2 62 -2q20 0 40 1zM372 -205q31 28 52 51q30 32 61 82q21 33 29 72l-108 1q-67 1 -92 6q-36 8 -65 28t-46.5 53
t-17.5 81q0 49 15.5 104.5t43 103t66.5 78.5t86 31q44 0 79 -18t61.5 -47.5t46 -68t31.5 -80t18 -83.5q2 -21 4 -41h154v-148h-161q-4 -29 -11 -54q-20 -70 -54 -123t-68 -87.5t-79.5 -74.5t-104 -81.5t-113 -73t-92.5 -49.5l-104 80q55 30 115 68q56 35 110 74
q-34 7 -60 33q-36 35 -36 85t35.5 85t84.5 35q50 0 85 -35t35 -85v-2zM311 -260.5q23 22.5 23 55.5q0 32 -23 54.5t-55 22.5t-55 -22.5t-23 -54.5q0 -33 23 -55.5t55 -22.5t55 22.5z" />
    <glyph glyph-name="uni06CA.fina" unicode="&#x6ca;" horiz-adv-x="760" 
d="M514 148q-2 55 -12.5 86.5t-26.5 52.5t-35 31.5t-38 10.5q-17 0 -33 -10.5t-28.5 -27.5t-20 -37.5t-7.5 -40.5q0 -19 8 -31t21.5 -19t31.5 -10t38 -4q32 -2 62 -2q20 0 40 1zM406 1q-67 1 -92 6q-36 8 -65 28t-46.5 53t-17.5 81q0 49 15.5 104.5t43 103t66.5 78.5t86 31
q44 0 79 -18t61.5 -47.5t46 -68t31.5 -80t18 -83.5q2 -21 4 -41h154v-148h-161q-4 -29 -11 -54q-20 -70 -54 -123t-68 -87.5t-79.5 -74.5t-104 -81.5t-113 -73t-92.5 -49.5l-104 80q55 30 114.5 67.5t117 79t108.5 85.5t81 76.5t61 82.5q21 33 29 72zM488 601l-113 84
l-82 -98l-121 86l92 112l109 -82l80 97l123 -86z" />
    <glyph glyph-name="uni06CD.fina" unicode="&#x6cd;" horiz-adv-x="1367" 
d="M431 172l108 -37q-28 -57 -46.5 -120t-18.5 -121q0 -75 24.5 -130t69 -91t107 -54t137.5 -18q117 0 224 26t193 92q16 13 16 22q0 3 -1 5q-5 11 -21 14q-51 7 -90 13t-70.5 13t-57 15t-48.5 19q-13 6 -23.5 19t-17.5 28t-10.5 31t-3.5 28q0 59 29.5 101t81.5 69t123 39.5
t155 12.5h106v-148h-239q-60 0 -99 -8t-48 -19q-2 -3 -2 -7q0 -8 19 -18q26 -14 95 -26q60 -11 106.5 -21t75.5 -32q16 -12 25 -22.5t13.5 -23t5.5 -28t1 -35.5q0 -35 -21.5 -71.5t-59 -71t-90 -65t-114 -53.5t-130.5 -36.5t-140 -13.5q-91 0 -172.5 21.5t-143 70t-98 127.5
t-36.5 193q0 34 7 74q0 4 1 8q-51 -35 -98 -62q-55 -32 -93 -50l-104 80q55 30 114.5 67.5t117 79t108.5 85.5q17 15 33 29z" />
    <glyph glyph-name="uni06CE.init" unicode="&#x6ce;" horiz-adv-x="515" 
d="M335 -385l-113 84l-82 -98l-121 86l92 112l109 -82l80 97l123 -86zM433 256q0 -25 -4.5 -53.5t-16.5 -57t-32.5 -55t-54 -46.5t-80.5 -32t-111 -12h-164v148h172q134 0 164 57q9 16 9 36q0 48 -52 115l-32 45l102 113q21 -23 39 -53t31.5 -64t21.5 -70.5t8 -70.5zM40 925
q3 6 6 13t6.5 14.5t9.5 16.5q25 -19 52 -46.5t51 -59t40 -65t24 -59.5q6 28 23 61t41 65t50 59t57 45q7 -16 13.5 -30.5t11.5 -24.5q-15 -11 -33.5 -28.5t-37 -40t-36 -49.5t-31.5 -57t-23.5 -62.5t-12.5 -65.5h-43q-2 33 -12 65.5t-24 62.5t-32 57t-36 49.5t-36 40
t-33 28.5q2 5 5 11z" />
    <glyph glyph-name="uni06CE.medi" unicode="&#x6ce;" horiz-adv-x="651" 
d="M328 -385l-113 84l-81 -98l-121 86l92 112l108 -82l80 97l123 -86zM595 0q-31 0 -64 4t-64 16.5t-57.5 36.5t-44.5 64q-15 -32 -40 -54.5t-54.5 -37.5t-60 -22t-56.5 -7h-184v148h176q26 0 58 6.5t59.5 23t46 44.5t18.5 71v61l103 29q1 -78 14.5 -124.5t38 -71t59 -32
t76.5 -7.5h62v-148h-86zM40 925q3 6 6 13t6.5 14.5t9.5 16.5q25 -19 52 -46.5t51 -59t40 -65t24 -59.5q6 28 23 61t41 65t50 59t57 45q7 -16 13.5 -30.5t11.5 -24.5q-15 -11 -33.5 -28.5t-37 -40t-36 -49.5t-31.5 -57t-23.5 -62.5t-12.5 -65.5h-43q-2 33 -12 65.5t-24 62.5
t-32 57t-36 49.5t-36 40t-33 28.5q2 5 5 11z" />
    <glyph glyph-name="uni06CE.fina" unicode="&#x6ce;" horiz-adv-x="1112" 
d="M903 0q-60 0 -99 -8t-48 -19q-2 -3 -2 -7q0 -8 19 -18q26 -14 95 -26q60 -11 106.5 -21t75.5 -32q16 -12 25 -22.5t13.5 -23t5.5 -28t1 -35.5q0 -35 -21.5 -71.5t-59 -71t-90 -65t-114 -53.5t-130.5 -36.5t-140 -13.5q-91 0 -172.5 21.5t-143 70t-98 127.5t-36.5 193
q0 34 6.5 74t18 81t27 81t34.5 75l108 -37q-28 -57 -46.5 -120t-18.5 -121q0 -75 24.5 -130t69 -91t107 -54t137.5 -18q117 0 224 26t193 92q16 13 16 22q0 3 -1 5q-5 11 -21 14q-51 7 -90 13t-70.5 13t-57 15t-48.5 19q-13 6 -23.5 19t-17.5 28t-10.5 31t-3.5 28
q0 59 29.5 101t81.5 69t123 39.5t155 12.5h106v-148h-239zM239 579q3 6 6 13t6.5 14.5t9.5 16.5q25 -19 52 -46.5t51 -59t40 -65t24 -59.5q6 28 23 61t41 65t50 59t57 45q7 -16 13.5 -30.5t11.5 -24.5q-15 -11 -33.5 -28.5t-37 -40t-36 -49.5t-31.5 -57t-23.5 -62.5
t-12.5 -65.5h-43q-2 33 -12 65.5t-24 62.5t-32 57t-36 49.5t-36 40t-33 28.5q2 5 5 11z" />
    <glyph glyph-name="uni06CF.fina" unicode="&#x6cf;" horiz-adv-x="760" 
d="M514 148q-2 55 -12.5 86.5t-26.5 52.5t-35 31.5t-38 10.5q-17 0 -33 -10.5t-28.5 -27.5t-20 -37.5t-7.5 -40.5q0 -19 8 -31t21.5 -19t31.5 -10t38 -4q32 -2 62 -2q20 0 40 1zM406 1q-67 1 -92 6q-36 8 -65 28t-46.5 53t-17.5 81q0 49 15.5 104.5t43 103t66.5 78.5t86 31
q44 0 79 -18t61.5 -47.5t46 -68t31.5 -80t18 -83.5q2 -21 4 -41h154v-148h-161q-4 -29 -11 -54q-20 -70 -54 -123t-68 -87.5t-79.5 -74.5t-104 -81.5t-113 -73t-92.5 -49.5l-104 80q55 30 114.5 67.5t117 79t108.5 85.5t81 76.5t61 82.5q21 33 29 72zM394 588l-132 86
l97 131l133 -90z" />
    <glyph glyph-name="uni06D1.init" unicode="&#x6d1;" horiz-adv-x="495" 
d="M413 256q0 -25 -4.5 -53.5t-16.5 -57t-32.5 -55t-54 -46.5t-80.5 -32t-111 -12h-144v148h152q134 0 164 57q9 16 9 36q0 48 -52 115l-32 45l102 113q21 -23 39 -53t31.5 -64t21.5 -70.5t8 -70.5zM221 -360l111 -80l-76 -97l-107 78zM98 -178l111 -82l74 96l110 -78
l-82 -102l-106 80l-74 -92l-111 78z" />
    <glyph glyph-name="uni06D1.medi" unicode="&#x6d1;" horiz-adv-x="621" 
d="M224 -360l108 -80l-75 -97l-107 78zM99 -178l111 -82l75 96l109 -78l-80 -102l-107 80l-75 -92l-111 78zM565 0q-31 0 -64 4t-64 16.5t-57.5 36.5t-44.5 64q-15 -32 -40 -54.5t-54.5 -37.5t-60 -22t-56.5 -7h-154v148h146q26 0 58 6.5t59.5 23t46 44.5t18.5 71v61l103 29
q1 -78 14.5 -124.5t38 -71t59 -32t76.5 -7.5h62v-148h-86z" />
    <glyph glyph-name="uni06D1.fina" unicode="&#x6d1;" horiz-adv-x="1112" 
d="M903 0q-60 0 -99 -8t-48 -19q-2 -3 -2 -7q0 -8 19 -18q26 -14 95 -26q60 -11 106.5 -21t75.5 -32q16 -12 25 -22.5t13.5 -23t5.5 -28t1 -35.5q0 -35 -21.5 -71.5t-59 -71t-90 -65t-114 -53.5t-130.5 -36.5t-140 -13.5q-91 0 -172.5 21.5t-143 70t-98 127.5t-36.5 193
q0 34 6.5 74t18 81t27 81t34.5 75l108 -37q-28 -57 -46.5 -120t-18.5 -121q0 -75 24.5 -130t69 -91t107 -54t137.5 -18q117 0 224 26t193 92q16 13 16 22q0 3 -1 5q-5 11 -21 14q-51 7 -90 13t-70.5 13t-57 15t-48.5 19q-13 6 -23.5 19t-17.5 28t-10.5 31t-3.5 28
q0 59 29.5 101t81.5 69t123 39.5t155 12.5h106v-148h-239zM533 -869l111 -80l-76 -97l-107 78zM410 -687l111 -82l74 96l110 -78l-82 -102l-106 80l-74 -92l-111 78z" />
    <glyph glyph-name="uni06D5.fina" unicode="&#x6d5;" horiz-adv-x="838" 
d="M776 0q-60 0 -105.5 13t-79.5 41.5t-57.5 73t-38.5 108.5q-26 -20 -60 -34t-69 -23.5t-69 -14t-60 -4.5t-52 9t-47 27t-34.5 45t-13.5 62q0 43 13.5 82t36 73.5t51 64.5t58.5 54q70 57 160 101l-18 111l104 83l94 -495q13 -70 27.5 -114.5t38.5 -70t62 -35t98 -9.5h53
v-148h-92zM430 549q-37 -15 -75.5 -37t-69.5 -47.5t-51 -53t-20 -53.5q0 -16 15 -24.5t38 -10.5q10 -2 22 -2q14 0 30 2q28 3 56 10.5t51 18.5t36 25z" />
    <glyph glyph-name="uni06EE.fina" unicode="&#x6ee;" horiz-adv-x="964" 
d="M928 0q-29 0 -57.5 3t-56.5 18t-57 47.5t-60 91.5q-28 -63 -66 -100.5t-83.5 -57t-96.5 -25.5t-103 -6q-92 0 -152.5 18t-100.5 58l69 125q31 -22 70 -32.5t98 -10.5q31 0 69.5 1.5t77 7.5t73.5 18t58.5 32.5t32.5 51.5q3 12 3 25q0 23 -9 50l-123 396l95 106l131 -448
q21 -73 44.5 -116.5t48 -67t49 -30.5t46.5 -7h66v-148h-66zM297 978q15 11 33 28.5t36 40t36 49.5t32 57t24 62.5t12 66.5h43q3 -33 12.5 -66t23.5 -63t31.5 -57t36 -49.5t37 -40t33.5 -28.5q-5 -10 -11.5 -24.5t-13.5 -29.5q-31 18 -57 45t-50 58.5t-41 64.5t-23 62
q-8 -26 -24 -59.5t-40 -65.5t-51 -59.5t-52 -45.5q-6 9 -9.5 16t-6.5 14t-6 13.5t-5 10.5z" />
    <glyph glyph-name="uni06EF.fina" unicode="&#x6ef;" horiz-adv-x="808" 
d="M600 243q13 -17 28 -32q27 -27 62.5 -45t84.5 -18h63v-148h-61q-25 0 -58 3t-66 19l-17 11q0 -68 -28.5 -132.5t-74.5 -122.5t-104 -108.5t-116.5 -92t-113 -73t-92.5 -49.5l-104 80q55 30 114.5 67.5t117 79t108.5 85.5t90 87t61.5 84t22.5 76q0 48 -23.5 105t-68.5 119
l104 106q21 -29 36 -52.5t35 -48.5zM245 556q15 11 33 28.5t36 40t36 49.5t32 57t24 62.5t12 66.5h43q3 -33 12.5 -66t23.5 -63t31.5 -57t36 -49.5t37 -40t33.5 -28.5q-5 -10 -11.5 -24.5t-13.5 -29.5q-31 18 -57 45t-50 58.5t-41 64.5t-23 62q-8 -26 -24 -59.5t-40 -65.5
t-51 -59.5t-52 -45.5q-6 9 -9.5 16t-6.5 14t-6 13.5t-5 10.5z" />
    <glyph glyph-name="uni06FA.init" unicode="&#x6fa;" horiz-adv-x="1096" 
d="M1013 262q0 -57 -16.5 -105t-46.5 -83t-71 -54.5t-90 -19.5q-72 0 -119 25.5t-73 76.5q-43 -59 -93 -80.5t-108 -21.5q-22 0 -48 5t-50.5 17t-44.5 31.5t-31 48.5q-17 -30 -39.5 -49.5t-48 -31t-52 -16.5t-50.5 -5h-62v148h35q36 0 66.5 6t53 23.5t35.5 49.5t13 84v25
l96 35v-27q0 -42 6 -78t20.5 -62.5t39.5 -41t63 -14.5q28 0 55 5.5t48 22.5t34 49t13 86v25l98 35v-27q0 -42 7.5 -78t24.5 -61.5t46 -40t72 -14.5q29 0 49 8t33 21t18.5 30.5t5.5 36.5q0 15 -5.5 33.5t-14.5 36.5t-20 34.5t-21 28.5l96 108q18 -21 32 -51t23.5 -61.5
t15 -61t5.5 -51.5zM595 877l-109 79l74 95l109 -78zM720 692l-111 82l-76 -94l-108 78l80 100l106 -78l74 92l113 -77zM622 -410l-131 89l96 131l131 -91z" />
    <glyph glyph-name="uni06FA.medi" unicode="&#x6fa;" horiz-adv-x="1214" 
d="M1181 0q-66 0 -117 22t-76 78q-40 -57 -92 -78.5t-115 -21.5q-62 0 -105.5 27t-66.5 73q-76 -100 -213 -100q-24 0 -49.5 6t-49 18t-43.5 31t-32 45q-17 -28 -39 -47t-46.5 -31t-51 -17t-53.5 -5h-62v148h37q35 0 65.5 6t53 23.5t35 49.5t12.5 84v25l98 35v-27
q0 -97 33 -146.5t96 -49.5q32 0 61 5t51 22t35 49.5t13 86.5v25l98 35v-27q0 -42 6 -78t20.5 -62.5t39.5 -41t63 -14.5q70 0 111 36.5t41 126.5v25l98 39v-31q0 -45 5.5 -81t21.5 -61.5t44.5 -39.5t74.5 -14h61v-148h-63zM605 877l-108 79l73 95l109 -78zM730 692l-111 82
l-75 -94l-109 78l80 100l107 -78l73 92l113 -77zM622 -410l-131 89l96 131l131 -91z" />
    <glyph glyph-name="uni06FA.fina" unicode="&#x6fa;" horiz-adv-x="1968" 
d="M1925 0q-20 0 -44.5 5t-48.5 16.5t-45 30.5t-34 48q-42 -58 -91.5 -79t-105.5 -21q-54 0 -103 24t-77 76q-37 -58 -81 -79t-106 -21q-35 0 -71.5 10.5t-67.5 38.5q2 -26 2 -50q0 -102 -30 -185q-38 -104 -109 -175.5t-171.5 -109t-217.5 -37.5q-112 0 -194 36t-136 95.5
t-80 136.5t-26 160q0 30 6 69t18 80.5t28.5 83t37.5 76.5l100 -36q-15 -23 -27.5 -55t-22 -66t-15 -66t-5.5 -55q0 -68 18.5 -125t59 -98t105 -64.5t155.5 -23.5q95 0 168.5 27t123.5 71t76 101.5t26 119.5q0 39 -7.5 79.5t-20.5 79.5t-31 75.5t-38 68.5l117 101
q19 -39 40 -77t47 -69t58.5 -50t75.5 -19q31 0 58 5.5t46.5 22.5t30.5 49t11 86v25l98 35v-27q0 -196 129 -196q29 0 56.5 5t48.5 22t33.5 49.5t12.5 86.5v25l97 35v-27q0 -45 5.5 -81.5t21.5 -62t45 -39t75 -13.5h49v-148h-73zM1370 877l-109 79l74 95l106 -78zM1495 692
l-111 82l-76 -94l-110 78l81 100l107 -78l74 92l110 -77zM1392 -410l-131 89l96 131l131 -91z" />
    <glyph glyph-name="uni06FB.init" unicode="&#x6fb;" horiz-adv-x="1343" 
d="M1263 375q0 -72 -29 -139.5t-93 -120t-167 -84t-250 -31.5h-270q-56 0 -94.5 5t-66.5 16t-47.5 30t-37.5 47q-32 -49 -74.5 -73.5t-99.5 -24.5h-64v148h43q49 0 78 13t44 34.5t19.5 49t4.5 56.5v41l114 39v-25q0 -59 7.5 -99t23 -64t38 -34.5t52.5 -10.5q35 0 59.5 13.5
t45 35.5t41 50.5t47.5 59.5q18 21 45.5 49.5t62.5 59.5t76 61t85.5 54t91 38.5t93.5 14.5q51 0 92 -19t70 -49t44.5 -67t15.5 -74zM1136 324q0 48 -41.5 80t-112.5 32q-45 0 -98 -28t-108 -71t-106.5 -93.5t-93.5 -95.5h160q115 0 192 18t123 45t65.5 57.5t19.5 55.5z
M835 801l-132 86l97 131l131 -90zM835 -410l-131 89l96 131l131 -91z" />
    <glyph glyph-name="uni06FB.medi" unicode="&#x6fb;" horiz-adv-x="1333" 
d="M835 801l-132 86l97 131l131 -90zM1299 0q-71 0 -118 22.5t-76 65.5q-72 -45 -165.5 -66.5t-215.5 -21.5h-270q-56 0 -94.5 5t-66.5 16t-47.5 30t-37.5 47q-25 -49 -68 -73.5t-96 -24.5h-74v148h43q49 0 78 13t44 34.5t19.5 49t4.5 56.5v41l114 39v-25q0 -59 7.5 -99
t23 -64t38 -34.5t52.5 -10.5q35 0 58.5 12.5t43.5 34t40.5 50.5t50.5 62q18 20 45.5 48.5t62.5 59.5t76 61t85.5 54t91 39t93.5 15q51 0 92 -19t70 -49t44.5 -67t15.5 -74q0 -50 -11.5 -98.5t-46.5 -96.5q9 -8 17.5 -14t20 -10t28 -6t41.5 -2h51v-148h-64zM1136 324
q0 48 -41.5 80t-112.5 32q-48 0 -102 -28.5t-107.5 -71.5t-104 -93.5t-92.5 -94.5h160q115 0 192 18t123 45t65.5 57.5t19.5 55.5zM835 -410l-131 89l96 131l131 -91z" />
    <glyph glyph-name="uni06FB.fina" unicode="&#x6fb;" horiz-adv-x="2097" 
d="M2064 0q-63 0 -113.5 21t-81.5 67q-72 -45 -164.5 -66.5t-214.5 -21.5h-268q-40 0 -85 9t-85 40q2 -25 2 -49q0 -103 -31 -186q-38 -104 -109.5 -175.5t-171.5 -109t-216 -37.5q-111 0 -193 36t-136 95.5t-80.5 136.5t-26.5 160q0 30 6 69t18 80.5t28.5 83t37.5 76.5
l100 -36q-15 -23 -27.5 -55t-22 -66t-15 -66t-5.5 -55q0 -68 18.5 -125t59 -98t104.5 -64.5t156 -23.5q95 0 168.5 27t123.5 71t76 101.5t26 119.5q0 39 -7.5 79.5t-20.5 79.5t-31 75.5t-38 68.5l117 101q23 -48 42 -88t40.5 -68t48 -43.5t64.5 -15.5q34 0 58 14t45 37.5
t42.5 54t52.5 63.5q28 31 76.5 76.5t109.5 88t129.5 72.5t137.5 30q51 0 92 -19t69 -49t43 -67t15 -74q0 -50 -11 -98.5t-46 -96.5q8 -8 16.5 -14t20.5 -10t28.5 -6t40.5 -2h51v-148h-63zM1900 324q0 48 -40 80t-110 32q-48 0 -104 -29.5t-111 -73t-104.5 -94t-85.5 -91.5
h160q114 0 190 18t121.5 45t64.5 57.5t19 55.5zM1621 758l-131 88l97 131l131 -90zM1622 -410l-131 89l96 131l131 -91z" />
    <glyph glyph-name="uni06FC.init" unicode="&#x6fc;" horiz-adv-x="842" 
d="M777 123q-87 -29 -169 -51.5t-170 -38.5t-186.5 -24.5t-217.5 -8.5h-64v148h232q-17 14 -33.5 36.5t-29.5 52t-21 64.5t-8 74q0 46 21 96.5t61 92.5t99 69t134 27q31 0 64.5 -7.5t66.5 -21t63.5 -31t53.5 -37.5l-47 -98q-26 15 -56 25.5t-58.5 16.5t-52.5 8.5t-38 2.5
q-45 0 -82 -12t-63 -32t-40 -45.5t-14 -51.5q0 -44 23 -76.5t60.5 -54.5t85.5 -32.5t99 -10.5q32 0 73 6t82.5 15t80 18.5t66.5 17.5zM378 875l-131 86l96 131l131 -90zM378 -410l-131 89l96 131l131 -91z" />
    <glyph glyph-name="uni06FC.medi" unicode="&#x6fc;" horiz-adv-x="778" 
d="M703 0q-51 0 -100.5 9t-92 27.5t-75.5 48t-51 71.5q-78 -84 -162.5 -120t-183.5 -36h-68v148h47q106 0 177 24t118 84q-6 21 -20 40.5t-35 35t-48.5 25.5t-60.5 12q3 43 22.5 82.5t57.5 70t93.5 48.5t130.5 18q40 0 74.5 -11t60 -29t39.5 -41.5t14 -49.5q0 -47 -12.5 -80
t-35.5 -59t-55 -49t-71 -50q27 -24 59 -38.5t68 -21.5t74 -9t77 -2h64v-148h-105zM378 811l-131 86l96 133l131 -92zM378 -410l-131 89l96 131l131 -91z" />
    <glyph glyph-name="uni06FC.fina" unicode="&#x6fc;" horiz-adv-x="977" 
d="M1043 -728q-46 -12 -98 -21.5t-110 -16t-121 -6.5q-129 0 -244 25t-202 82t-137.5 150t-50.5 230q0 97 37.5 179.5t98 152.5t137.5 126.5t155 100.5q-16 47 -58.5 75t-111.5 30q2 37 22 76t58.5 71t96.5 52t136 20q43 0 79.5 -11t63 -30t41.5 -44.5t15 -53.5
q0 -49 -16 -82.5t-43.5 -59.5t-63 -48.5t-74.5 -49.5q22 -25 53.5 -39.5t69 -21.5t79.5 -8.5t85 -1.5h67v-148h-139q-65 0 -113.5 11t-85 31t-61.5 49.5t-43 66.5q-85 -48 -150 -94.5t-109 -97.5t-66.5 -109.5t-22.5 -130.5t30.5 -136t95.5 -112t166.5 -75.5t243.5 -27.5
q97 0 178 16q51 9 99 20l44 -131q-15 -4 -31 -8zM565 811l-129 86l94 133l133 -92zM608 -373l-131 88l97 131l133 -90z" />
    <glyph glyph-name="uni06FF.init" unicode="&#x6ff;" horiz-adv-x="846" 
d="M763 160q0 -62 -11 -103.5t-30 -67.5t-43 -37t-51 -11q-12 0 -35 7.5t-51 19t-58 25.5t-56 26.5t-45.5 21.5t-25.5 12q-31 -17 -58.5 -27.5t-56.5 -16t-60.5 -7.5t-69.5 -2h-142v148h228q-61 26 -92 75q-25 39 -25 86q0 11 1 22q7 60 57.5 124.5t152.5 122.5l-53 38
l59 142q94 -69 178.5 -141t148.5 -146.5t101 -152t37 -158.5zM652 166q0 13 -6 31t-22 43.5t-42.5 60t-68.5 80.5q2 -19 2 -36t-2 -33q-4 -31 -14 -57t-25 -46.5t-33 -36.5q9 -7 34 -19.5t52.5 -25t51 -22t30.5 -9.5q26 0 34.5 13t8.5 57zM415 344q0 20 -5.5 42.5t-16 41
t-26 31t-36.5 12.5t-44.5 -12t-43 -31t-32.5 -42.5t-13 -45.5t16 -43t38 -37t45 -25.5t38 -9.5q12 0 26 9t26 25t20 38t8 47zM109 859q15 11 33 28.5t36 40t36 49.5t32 57t24 62.5t12 66.5h43q3 -33 12.5 -66t23.5 -63t31.5 -57t36 -49.5t37 -40t33.5 -28.5
q-5 -10 -11.5 -24.5t-13.5 -29.5q-31 18 -57 45t-50 58.5t-41 64.5t-23 62q-8 -26 -24 -59.5t-40 -65.5t-51 -59.5t-52 -45.5q-6 9 -9.5 16t-6.5 14t-6 13.5t-5 10.5z" />
    <glyph glyph-name="uni06FF.medi" unicode="&#x6ff;" horiz-adv-x="794" 
d="M757 0q-69 0 -119 -16.5t-81.5 -42.5t-43.5 -59q-9 -23 -9 -46q0 -10 2 -20q5 -33 28.5 -63.5t64.5 -51.5l-43 -135q-95 30 -163.5 72.5t-117 97.5t-79.5 121t-50 143h-176v148h160q0 65 12 127t31.5 116.5t43.5 99.5t48.5 77.5t47 50.5t38.5 18q20 0 50 -27t58 -71
t48 -99t20 -112q0 -64 -19 -123t-52.5 -104t-80.5 -72t-102 -27q16 -59 56.5 -110.5t87.5 -86.5q-6 24 -6 49q0 30 9 63q15 60 55.5 111.5t102.5 85.5t142 34h104v-148h-67zM423 291q0 38 -10 68.5t-23.5 51.5t-26.5 32.5t-20 11.5t-23 -21t-32.5 -59.5t-29.5 -93.5
t-13 -123q13 -1 26 -1q33 0 58 8q34 11 55 31t30 45t9 50zM159 784q15 11 33 28.5t36 40t36 49.5t32 57t24 62.5t12 66.5h43q3 -33 12.5 -66t23.5 -63t31.5 -57t36 -49.5t37 -40t33.5 -28.5q-5 -10 -11.5 -24.5t-13.5 -29.5q-31 18 -57 45t-50 58.5t-41 64.5t-23 62
q-8 -26 -24 -59.5t-40 -65.5t-51 -59.5t-52 -45.5q-6 9 -9.5 16t-6.5 14t-6 13.5t-5 10.5z" />
    <glyph glyph-name="uni06FF.fina" unicode="&#x6ff;" horiz-adv-x="932" 
d="M561 291q0 38 -10 68.5t-23.5 51.5t-26.5 32.5t-20 11.5t-23 -21t-32.5 -59.5t-31.5 -108.5q-11 -53 -11 -123q0 -23 1 -48q34 20 54 34.5t41.5 30.5t42.5 36t30 45t9 50zM418 -21q17 -46 50 -87q40 -52 87 -87q-6 24 -6 49q0 30 9 63q15 60 55.5 111.5t102.5 85.5
t142 34h104v-148h-67q-69 0 -119 -16.5t-81.5 -42.5t-43.5 -59q-9 -23 -9 -46q0 -10 2 -20q5 -33 28.5 -63.5t64.5 -51.5l-43 -135q-95 30 -163.5 72.5t-117 97.5t-79.5 121q-11 23 -20 47q-39 -27 -76 -48q-55 -32 -93 -50l-104 80q55 30 114.5 67.5t124.5 84.5
q-10 70 -10 127q0 48 7 87q15 85 34.5 139.5t43.5 99.5t48.5 77.5t47 50.5t38.5 18q20 0 50 -27t58 -71t48 -99t20 -112q0 -64 -19 -119t-60.5 -104.5t-96.5 -82.5q-26 -18 -71 -43zM289 784q15 11 33 28.5t36 40t36 49.5t32 57t24 62.5t12 66.5h43q3 -33 12.5 -66t23.5 -63
t31.5 -57t36 -49.5t37 -40t33.5 -28.5q-5 -10 -11.5 -24.5t-13.5 -29.5q-31 18 -57 45t-50 58.5t-41 64.5t-23 62q-8 -26 -24 -59.5t-40 -65.5t-51 -59.5t-52 -45.5q-6 9 -9.5 16t-6.5 14t-6 13.5t-5 10.5z" />
    <glyph glyph-name="uniFB50" unicode="&#x671;" horiz-adv-x="516" arabic-form="isolated" 
d="M501 1462q0 -41 -20 -68t-51.5 -44t-71.5 -24t-79 -7q-37 0 -58.5 5t-36 11.5t-26 11.5t-28.5 5q-6 0 -16 -4t-20 -9.5t-19 -11t-13 -8.5l-39 45q21 24 44 37t45 18q14 3 27 3h14q19 -3 34 -9q15 18 38.5 42.5t53.5 47t64 38.5t70 16q24 0 40.5 -9t27 -22.5t15.5 -30.5
t5 -33zM462 1454q0 10 -7 17t-18 11.5t-24.5 6.5t-26.5 2q-18 0 -38.5 -7.5t-41 -19.5t-38.5 -26.5t-32 -28.5q23 -8 62 -8q38 0 74.5 6t63 18t26.5 29zM228 0l-33 1217l134 49v-1239z" />
    <glyph glyph-name="uniFB51" unicode="&#x671;" horiz-adv-x="507" arabic-form="final" 
d="M476 0q-54 0 -101.5 16t-83.5 61t-59 125t-29 208q-3 71 -4 131.5t-2 117.5t-1.5 113.5t-2.5 120.5t-6.5 139t-11.5 168l131 66q6 -126 8.5 -243.5t4 -223.5t2.5 -197.5t3 -165.5q3 -82 14 -137.5t32 -89t52 -47.5t74 -14h41v-148h-61zM498 1462q0 -41 -19.5 -68t-51 -44
t-70.5 -24t-78 -7q-38 0 -59.5 5t-36 11.5t-26 11.5t-27.5 5q-6 0 -16 -4t-20.5 -9.5t-20 -11t-13.5 -8.5l-37 45q21 24 43.5 37t44.5 18q15 3 28 3h14q19 -3 34 -9q15 18 38.5 42.5t53 47t63 38.5t68.5 16q25 0 41.5 -9t27 -22.5t15 -30.5t4.5 -33zM461 1454q0 10 -7 17
t-18 11.5t-24 6.5t-26 2q-19 0 -39.5 -7.5t-40.5 -19.5t-38 -26.5t-32 -28.5q23 -8 61 -8t74.5 6t63 18t26.5 29z" />
    <glyph glyph-name="uniFB52" unicode="&#x67b;" horiz-adv-x="1605" arabic-form="isolated" 
d="M1523 279q0 -50 -24.5 -90.5t-67.5 -72.5t-101.5 -56t-126.5 -42t-142 -29.5t-148.5 -18.5t-146 -10t-134.5 -3q-131 0 -230.5 13.5t-166.5 47.5t-101 91.5t-34 144.5q0 23 4.5 48.5t13 50.5t19.5 48t24 41l94 -28q-18 -31 -28.5 -67t-10.5 -64q0 -45 18.5 -77.5
t64.5 -54t123 -32t194 -10.5h49q102 0 197.5 6.5t179 18t152.5 27t118.5 33.5t76.5 37.5t27 38.5t-7.5 41.5t-20 45t-28.5 44.5t-34 41l92 117q60 -77 82.5 -145.5t22.5 -134.5zM814 -389l-111 73l84 115l117 -79l-85 -110l112 -76l-86 -112l-115 76z" />
    <glyph glyph-name="uniFB53" unicode="&#x67b;" horiz-adv-x="1647" arabic-form="final" 
d="M1613 0q-36 0 -69.5 8t-61.5 25.5t-47.5 46t-28.5 70.5q-46 -55 -127.5 -92t-185 -59.5t-222 -32t-239.5 -9.5q-131 0 -230.5 13.5t-166.5 47.5t-101 91.5t-34 144.5q0 23 4.5 48.5t13 50.5t19.5 48t24 41l94 -28q-18 -31 -28.5 -67t-10.5 -64q0 -42 16.5 -74t60.5 -54.5
t122 -34t201 -11.5h49q91 0 178 5.5t165 16t145 26.5t117 37t81 48t37 59l10 55l82 27q0 -64 8 -108.5t26.5 -72.5t48.5 -41t75 -13h39v-148h-64zM782 -395l-111 73l84 115l117 -79l-85 -110l112 -76l-86 -112l-115 76z" />
    <glyph glyph-name="uniFB54" unicode="&#x67b;" horiz-adv-x="435" arabic-form="initial" 
d="M188 -351l-111 73l85 115l117 -79l-86 -110l113 -76l-86 -112l-115 76zM353 256q0 -25 -4.5 -53.5t-16.5 -57t-32.5 -55t-54 -46.5t-80.5 -32t-111 -12h-84v148h92q134 0 164 57q9 16 9 36q0 48 -52 115l-32 45l102 113q21 -23 39 -53t31.5 -64t21.5 -70.5t8 -70.5z" />
    <glyph glyph-name="uniFB55" unicode="&#x67b;" horiz-adv-x="551" arabic-form="medial" 
d="M495 0q-31 0 -64 4t-64 16.5t-57.5 36.5t-44.5 64q-15 -32 -40 -54.5t-54.5 -37.5t-60 -22t-56.5 -7h-84v148h76q26 0 58 6.5t59.5 23t46 44.5t18.5 71v61l103 29q1 -78 14.5 -124.5t38 -71t59 -32t76.5 -7.5h62v-148h-86zM198 -351l-111 73l85 115l117 -79l-86 -110
l113 -76l-86 -112l-115 76z" />
    <glyph glyph-name="uniFB56" unicode="&#x67e;" horiz-adv-x="1605" arabic-form="isolated" 
d="M810 -403l109 -80l-74 -94l-106 77zM687 -221l109 -80l76 94l110 -78l-82 -100l-106 78l-74 -92l-110 78zM1523 279q0 -50 -24.5 -90.5t-67.5 -72.5t-101.5 -56t-126.5 -42t-142 -29.5t-148.5 -18.5t-146 -10t-134.5 -3q-131 0 -230.5 13.5t-166.5 47.5t-101 91.5
t-34 144.5q0 23 4.5 48.5t13 50.5t19.5 48t24 41l94 -28q-18 -31 -28.5 -67t-10.5 -64q0 -45 18.5 -77.5t64.5 -54t123 -32t194 -10.5h49q102 0 197.5 6.5t179 18t152.5 27t118.5 33.5t76.5 37.5t27 38.5t-7.5 41.5t-20 45t-28.5 44.5t-34 41l92 117q60 -77 82.5 -145.5
t22.5 -134.5z" />
    <glyph glyph-name="uniFB57" unicode="&#x67e;" horiz-adv-x="1647" arabic-form="final" 
d="M790 -403l108 -80l-73 -94l-109 77zM665 -221l110 -80l76 94l109 -78l-80 -100l-107 78l-73 -92l-113 78zM1613 0q-36 0 -69.5 8t-61.5 25.5t-47.5 46t-28.5 70.5q-46 -55 -127.5 -92t-185 -59.5t-222 -32t-239.5 -9.5q-131 0 -230.5 13.5t-166.5 47.5t-101 91.5
t-34 144.5q0 23 4.5 48.5t13 50.5t19.5 48t24 41l94 -28q-18 -31 -28.5 -67t-10.5 -64q0 -42 16.5 -74t60.5 -54.5t122 -34t201 -11.5h49q91 0 178 5.5t165 16t145 26.5t117 37t81 48t37 59l10 55l82 27q0 -64 8 -108.5t26.5 -72.5t48.5 -41t75 -13h39v-148h-64z" />
    <glyph glyph-name="uniFB58" unicode="&#x67e;" horiz-adv-x="495" arabic-form="initial" 
d="M413 256q0 -25 -4.5 -53.5t-16.5 -57t-32.5 -55t-54 -46.5t-80.5 -32t-111 -12h-144v148h152q134 0 164 57q9 16 9 36q0 48 -52 115l-32 45l102 113q21 -23 39 -53t31.5 -64t21.5 -70.5t8 -70.5zM221 -360l111 -80l-76 -97l-107 78zM98 -178l111 -82l74 96l110 -78
l-82 -102l-106 80l-74 -92l-111 78z" />
    <glyph glyph-name="uniFB59" unicode="&#x67e;" horiz-adv-x="621" arabic-form="medial" 
d="M224 -360l108 -80l-75 -97l-107 78zM99 -178l111 -82l75 96l109 -78l-80 -102l-107 80l-75 -92l-111 78zM565 0q-31 0 -64 4t-64 16.5t-57.5 36.5t-44.5 64q-15 -32 -40 -54.5t-54.5 -37.5t-60 -22t-56.5 -7h-154v148h146q26 0 58 6.5t59.5 23t46 44.5t18.5 71v61l103 29
q1 -78 14.5 -124.5t38 -71t59 -32t76.5 -7.5h62v-148h-86z" />
    <glyph glyph-name="uniFB5A" unicode="&#x680;" horiz-adv-x="1605" arabic-form="isolated" 
d="M1523 279q0 -50 -24.5 -90.5t-67.5 -72.5t-101.5 -56t-126.5 -42t-142 -29.5t-148.5 -18.5t-146 -10t-134.5 -3q-131 0 -230.5 13.5t-166.5 47.5t-101 91.5t-34 144.5q0 23 4.5 48.5t13 50.5t19.5 48t24 41l94 -28q-18 -31 -28.5 -67t-10.5 -64q0 -45 18.5 -77.5
t64.5 -54t123 -32t194 -10.5h49q102 0 197.5 6.5t179 18t152.5 27t118.5 33.5t76.5 37.5t27 38.5t-7.5 41.5t-20 45t-28.5 44.5t-34 41l92 117q60 -77 82.5 -145.5t22.5 -134.5zM907 -385l105 -73l-78 -100l-110 82l-76 -94l-109 75l76 98l-105 73l80 103l107 -80l74 92
l112 -78zM898 -382l-103 77l-72 -90l103 -77z" />
    <glyph glyph-name="uniFB5B" unicode="&#x680;" horiz-adv-x="1647" arabic-form="final" 
d="M1613 0q-36 0 -69.5 8t-61.5 25.5t-47.5 46t-28.5 70.5q-46 -55 -127.5 -92t-185 -59.5t-222 -32t-239.5 -9.5q-131 0 -230.5 13.5t-166.5 47.5t-101 91.5t-34 144.5q0 23 4.5 48.5t13 50.5t19.5 48t24 41l94 -28q-18 -31 -28.5 -67t-10.5 -64q0 -42 16.5 -74t60.5 -54.5
t122 -34t201 -11.5h49q91 0 178 5.5t165 16t145 26.5t117 37t81 48t37 59l10 55l82 27q0 -64 8 -108.5t26.5 -72.5t48.5 -41t75 -13h39v-148h-64zM886 -386l105 -73l-78 -100l-110 82l-76 -94l-109 75l76 98l-105 73l80 103l107 -80l74 92l112 -78zM877 -383l-103 77
l-72 -90l103 -77z" />
    <glyph glyph-name="uniFB5C" unicode="&#x680;" horiz-adv-x="495" arabic-form="initial" 
d="M413 256q0 -25 -4.5 -53.5t-16.5 -57t-32.5 -55t-54 -46.5t-80.5 -32t-111 -12h-144v148h152q134 0 164 57q9 16 9 36q0 48 -52 115l-32 45l102 113q21 -23 39 -53t31.5 -64t21.5 -70.5t8 -70.5zM318 -342l105 -73l-78 -100l-110 82l-76 -94l-109 75l76 98l-105 73
l80 103l107 -80l74 92l112 -78zM309 -339l-103 77l-72 -90l103 -77z" />
    <glyph glyph-name="uniFB5D" unicode="&#x680;" horiz-adv-x="621" arabic-form="medial" 
d="M565 0q-31 0 -64 4t-64 16.5t-57.5 36.5t-44.5 64q-15 -32 -40 -54.5t-54.5 -37.5t-60 -22t-56.5 -7h-154v148h146q26 0 58 6.5t59.5 23t46 44.5t18.5 71v61l103 29q1 -78 14.5 -124.5t38 -71t59 -32t76.5 -7.5h62v-148h-86zM318 -342l105 -73l-78 -100l-110 82l-76 -94
l-109 75l76 98l-105 73l80 103l107 -80l74 92l112 -78zM309 -339l-103 77l-72 -90l103 -77z" />
    <glyph glyph-name="uniFB5E" unicode="&#x67a;" horiz-adv-x="1605" arabic-form="isolated" 
d="M1523 279q0 -50 -24.5 -90.5t-67.5 -72.5t-101.5 -56t-126.5 -42t-142 -29.5t-148.5 -18.5t-146 -10t-134.5 -3q-131 0 -230.5 13.5t-166.5 47.5t-101 91.5t-34 144.5q0 23 4.5 48.5t13 50.5t19.5 48t24 41l94 -28q-18 -31 -28.5 -67t-10.5 -64q0 -45 18.5 -77.5
t64.5 -54t123 -32t194 -10.5h49q102 0 197.5 6.5t179 18t152.5 27t118.5 33.5t76.5 37.5t27 38.5t-7.5 41.5t-20 45t-28.5 44.5t-34 41l92 117q60 -77 82.5 -145.5t22.5 -134.5zM736 768l-111 73l84 115l117 -79l-85 -110l112 -76l-86 -112l-115 76z" />
    <glyph glyph-name="uniFB5F" unicode="&#x67a;" horiz-adv-x="1647" arabic-form="final" 
d="M1613 0q-36 0 -69.5 8t-61.5 25.5t-47.5 46t-28.5 70.5q-46 -55 -127.5 -92t-185 -59.5t-222 -32t-239.5 -9.5q-131 0 -230.5 13.5t-166.5 47.5t-101 91.5t-34 144.5q0 23 4.5 48.5t13 50.5t19.5 48t24 41l94 -28q-18 -31 -28.5 -67t-10.5 -64q0 -42 16.5 -74t60.5 -54.5
t122 -34t201 -11.5h49q91 0 178 5.5t165 16t145 26.5t117 37t81 48t37 59l10 55l82 27q0 -64 8 -108.5t26.5 -72.5t48.5 -41t75 -13h39v-148h-64zM745 751l-111 73l84 115l117 -79l-85 -110l112 -76l-86 -112l-115 76z" />
    <glyph glyph-name="uniFB60" unicode="&#x67a;" horiz-adv-x="435" arabic-form="initial" 
d="M179 851l-111 73l84 115l117 -79l-85 -110l112 -76l-86 -112l-115 76zM353 256q0 -25 -4.5 -53.5t-16.5 -57t-32.5 -55t-54 -46.5t-80.5 -32t-111 -12h-84v148h92q134 0 164 57q9 16 9 36q0 48 -52 115l-32 45l102 113q21 -23 39 -53t31.5 -64t21.5 -70.5t8 -70.5z" />
    <glyph glyph-name="uniFB61" unicode="&#x67a;" horiz-adv-x="551" arabic-form="medial" 
d="M171 811l-111 73l84 115l117 -79l-85 -110l112 -76l-86 -112l-115 76zM495 0q-31 0 -64 4t-64 16.5t-57.5 36.5t-44.5 64q-15 -32 -40 -54.5t-54.5 -37.5t-60 -22t-56.5 -7h-84v148h76q26 0 58 6.5t59.5 23t46 44.5t18.5 71v61l103 29q1 -78 14.5 -124.5t38 -71t59 -32
t76.5 -7.5h62v-148h-86z" />
    <glyph glyph-name="uniFB62" unicode="&#x67f;" horiz-adv-x="1605" arabic-form="isolated" 
d="M1523 279q0 -50 -24.5 -90.5t-67.5 -72.5t-101.5 -56t-126.5 -42t-142 -29.5t-148.5 -18.5t-146 -10t-134.5 -3q-131 0 -230.5 13.5t-166.5 47.5t-101 91.5t-34 144.5q0 23 4.5 48.5t13 50.5t19.5 48t24 41l94 -28q-18 -31 -28.5 -67t-10.5 -64q0 -45 18.5 -77.5
t64.5 -54t123 -32t194 -10.5h49q102 0 197.5 6.5t179 18t152.5 27t118.5 33.5t76.5 37.5t27 38.5t-7.5 41.5t-20 45t-28.5 44.5t-34 41l92 117q60 -77 82.5 -145.5t22.5 -134.5zM832 761l105 -73l-78 -100l-110 82l-76 -94l-109 75l76 98l-105 73l80 103l107 -80l74 92
l112 -78zM823 764l-103 77l-72 -90l103 -77z" />
    <glyph glyph-name="uniFB63" unicode="&#x67f;" horiz-adv-x="1647" arabic-form="final" 
d="M1613 0q-36 0 -69.5 8t-61.5 25.5t-47.5 46t-28.5 70.5q-46 -55 -127.5 -92t-185 -59.5t-222 -32t-239.5 -9.5q-131 0 -230.5 13.5t-166.5 47.5t-101 91.5t-34 144.5q0 23 4.5 48.5t13 50.5t19.5 48t24 41l94 -28q-18 -31 -28.5 -67t-10.5 -64q0 -42 16.5 -74t60.5 -54.5
t122 -34t201 -11.5h49q91 0 178 5.5t165 16t145 26.5t117 37t81 48t37 59l10 55l82 27q0 -64 8 -108.5t26.5 -72.5t48.5 -41t75 -13h39v-148h-64zM834 754l105 -73l-78 -100l-110 82l-76 -94l-109 75l76 98l-105 73l80 103l107 -80l74 92l112 -78zM825 757l-103 77l-72 -90
l103 -77z" />
    <glyph glyph-name="uniFB64" unicode="&#x67f;" horiz-adv-x="475" arabic-form="initial" 
d="M393 256q0 -25 -4.5 -53.5t-16.5 -57t-32.5 -55t-54 -46.5t-80.5 -32t-111 -12h-124v148h132q134 0 164 57q9 16 9 36q0 48 -52 115l-32 45l102 113q21 -23 39 -53t31.5 -64t21.5 -70.5t8 -70.5zM272 847l105 -73l-78 -100l-110 82l-76 -94l-109 75l76 98l-105 73l80 103
l107 -80l74 92l112 -78zM263 850l-103 77l-72 -90l103 -77z" />
    <glyph glyph-name="uniFB65" unicode="&#x67f;" horiz-adv-x="581" arabic-form="medial" 
d="M525 0q-31 0 -64 4t-64 16.5t-57.5 36.5t-44.5 64q-15 -32 -40 -54.5t-54.5 -37.5t-60 -22t-56.5 -7h-114v148h106q26 0 58 6.5t59.5 23t46 44.5t18.5 71v61l103 29q1 -78 14.5 -124.5t38 -71t59 -32t76.5 -7.5h62v-148h-86zM277 792l105 -73l-78 -100l-110 82l-76 -94
l-109 75l76 98l-105 73l80 103l107 -80l74 92l112 -78zM268 795l-103 77l-72 -90l103 -77z" />
    <glyph glyph-name="uniFB66" unicode="&#x679;" horiz-adv-x="1605" arabic-form="isolated" 
d="M1523 279q0 -50 -24.5 -90.5t-67.5 -72.5t-101.5 -56t-126.5 -42t-142 -29.5t-148.5 -18.5t-146 -10t-134.5 -3q-131 0 -230.5 13.5t-166.5 47.5t-101 91.5t-34 144.5q0 23 4.5 48.5t13 50.5t19.5 48t24 41l94 -28q-18 -31 -28.5 -67t-10.5 -64q0 -45 18.5 -77.5
t64.5 -54t123 -32t194 -10.5h49q102 0 197.5 6.5t179 18t152.5 27t118.5 33.5t76.5 37.5t27 38.5t-7.5 41.5t-20 45t-28.5 44.5t-34 41l92 117q60 -77 82.5 -145.5t22.5 -134.5zM736 709q12 12 29 26t36 26t39.5 19.5t39.5 7.5q22 0 37.5 -7t27 -18t17 -25t5.5 -27
q0 -27 -11 -53t-35.5 -45.5t-63 -31.5t-94.5 -12h-101q-17 0 -33 2t-31.5 6.5t-28.5 10.5t-23 14l15 43q22 -8 40 -13q10 -2 20 -2q7 0 13 1q17 2 31 13.5t27 33.5q0 2 1 16v11q0 11 -1 27q0 22 -0.5 51t-1.5 59.5t-1.5 60.5t-1.5 55v22l49 21v-292zM920 691q0 9 -4.5 17
t-12 13.5t-19 9t-23.5 3.5q-11 0 -23.5 -5.5t-26.5 -14t-29.5 -19.5t-30 -23t-28 -24t-25.5 -23h70q43 0 72.5 7t47 16.5t25 21t7.5 21.5z" />
    <glyph glyph-name="uniFB67" unicode="&#x679;" horiz-adv-x="1647" arabic-form="final" 
d="M1613 0q-36 0 -69.5 8t-61.5 25.5t-47.5 46t-28.5 70.5q-46 -55 -127.5 -92t-185 -59.5t-222 -32t-239.5 -9.5q-131 0 -230.5 13.5t-166.5 47.5t-101 91.5t-34 144.5q0 23 4.5 48.5t13 50.5t19.5 48t24 41l94 -28q-18 -31 -28.5 -67t-10.5 -64q0 -42 16.5 -74t60.5 -54.5
t122 -34t201 -11.5h49q91 0 178 5.5t165 16t145 26.5t117 37t81 48t37 59l10 55l82 27q0 -64 8 -108.5t26.5 -72.5t48.5 -41t75 -13h39v-148h-64zM721 708q12 12 29 26t36 26t39.5 19.5t39.5 7.5q22 0 37.5 -7t27 -18t17 -25t5.5 -27q0 -27 -11 -53t-35.5 -45.5t-63 -31.5
t-94.5 -12h-101q-17 0 -33 2t-31.5 6.5t-28.5 10.5t-23 14l15 43q22 -8 40 -13q10 -2 20 -2q7 0 13 1q17 2 31 13.5t27 33.5q0 2 1 16v11q0 11 -1 27q0 22 -0.5 51t-1.5 59.5t-1.5 60.5t-1.5 55v22l49 21v-292zM905 690q0 9 -4.5 17t-12 13.5t-19 9t-23.5 3.5
q-11 0 -23.5 -5.5t-26.5 -14t-29.5 -19.5t-30 -23t-28 -24t-25.5 -23h70q43 0 72.5 7t47 16.5t25 21t7.5 21.5z" />
    <glyph glyph-name="uniFB68" unicode="&#x679;" horiz-adv-x="475" arabic-form="initial" 
d="M393 256q0 -25 -4.5 -53.5t-16.5 -57t-32.5 -55t-54 -46.5t-80.5 -32t-111 -12h-124v148h132q134 0 164 57q9 16 9 36q0 48 -52 115l-32 45l102 113q21 -23 39 -53t31.5 -64t21.5 -70.5t8 -70.5zM196 773q12 12 29 26t36 26t39.5 19.5t39.5 7.5q22 0 37.5 -7t27 -18
t17 -25t5.5 -27q0 -27 -11 -53t-35.5 -45.5t-63 -31.5t-94.5 -12h-101q-17 0 -33 2t-31.5 6.5t-28.5 10.5t-23 14l15 43q22 -8 40 -13q10 -2 20 -2q7 0 13 1q17 2 31 13.5t27 33.5q0 2 1 16v11q0 11 -1 27q0 22 -0.5 51t-1.5 59.5t-1.5 60.5t-1.5 55v22l49 21v-292zM380 755
q0 9 -4.5 17t-12 13.5t-19 9t-23.5 3.5q-11 0 -23.5 -5.5t-26.5 -14t-29.5 -19.5t-30 -23t-28 -24t-25.5 -23h70q43 0 72.5 7t47 16.5t25 21t7.5 21.5z" />
    <glyph glyph-name="uniFB69" unicode="&#x679;" horiz-adv-x="581" arabic-form="medial" 
d="M525 0q-31 0 -64 4t-64 16.5t-57.5 36.5t-44.5 64q-15 -32 -40 -54.5t-54.5 -37.5t-60 -22t-56.5 -7h-114v148h106q26 0 58 6.5t59.5 23t46 44.5t18.5 71v61l103 29q1 -78 14.5 -124.5t38 -71t59 -32t76.5 -7.5h62v-148h-86zM196 743q12 12 29 26t36 26t39.5 19.5
t39.5 7.5q22 0 37.5 -7t27 -18t17 -25t5.5 -27q0 -27 -11 -53t-35.5 -45.5t-63 -31.5t-94.5 -12h-101q-17 0 -33 2t-31.5 6.5t-28.5 10.5t-23 14l15 43q22 -8 40 -13q10 -2 20 -2q7 0 13 1q17 2 31 13.5t27 33.5q0 2 1 16v11q0 11 -1 27q0 22 -0.5 51t-1.5 59.5t-1.5 60.5
t-1.5 55v22l49 21v-292zM380 725q0 9 -4.5 17t-12 13.5t-19 9t-23.5 3.5q-11 0 -23.5 -5.5t-26.5 -14t-29.5 -19.5t-30 -23t-28 -24t-25.5 -23h70q43 0 72.5 7t47 16.5t25 21t7.5 21.5z" />
    <glyph glyph-name="uniFB6A" unicode="&#x6a4;" horiz-adv-x="1604" arabic-form="isolated" 
d="M1517 375q0 -81 -25.5 -139.5t-72.5 -100.5t-114.5 -70.5t-152.5 -48.5q-57 -14 -120.5 -24.5t-130 -18.5t-134.5 -12t-135 -4q-131 0 -230.5 13.5t-166.5 47.5t-101 91.5t-34 144.5q0 23 4.5 48.5t13 50.5t19.5 48t24 41l94 -28q-18 -31 -28.5 -67t-10.5 -64
q0 -36 12 -68t49 -55.5t105 -37t180 -13.5h103q186 0 318.5 19t218.5 44.5t130 52.5t54 43q11 19 12.5 36t1.5 36q-38 -23 -70.5 -31t-76.5 -8q-50 0 -81 17t-48 41t-23 51t-6 47q0 19 6 51t17.5 69t28.5 74.5t40 68t52 50t63 19.5q27 0 54 -17t51 -46.5t44 -70t34.5 -86.5
t23 -95.5t8.5 -98.5zM1375 469q-4 21 -12 50t-20.5 55.5t-29 44.5t-36.5 18q-16 0 -31 -14.5t-27 -35t-19 -41.5t-7 -34q0 -15 3 -29t11.5 -25t24 -17.5t41.5 -6.5q40 0 62 9t40 26zM1212 1097l-109 79l74 95l106 -78zM1337 912l-111 82l-76 -94l-110 78l81 100l107 -78
l74 92l110 -77z" />
    <glyph glyph-name="uniFB6B" unicode="&#x6a4;" horiz-adv-x="1690" arabic-form="final" 
d="M1615 0q-35 0 -74.5 5.5t-79 17t-75.5 29.5t-64 42q-61 -32 -142.5 -57.5t-173 -43t-188 -27t-186.5 -9.5q-131 0 -230.5 13.5t-166.5 47.5t-101 91.5t-34 144.5q0 23 4.5 48.5t13 50.5t19.5 48t24 41l94 -28q-18 -31 -28.5 -67t-10.5 -64q0 -36 12 -68t49 -55.5t105 -37
t180 -13.5h103q193 0 331 19t214 56q-21 18 -33.5 39.5t-18.5 44.5t-8 47t-2 45q0 33 12 66t32 63t45.5 56t53 45t55 30t50.5 11q31 0 62 -19t55.5 -52t39.5 -77.5t15 -95.5q0 -29 -10.5 -62t-28 -64t-39.5 -56t-45 -37q19 -9 40.5 -13.5t43.5 -5.5q17 -2 34 -2q5 0 11 1
h146v-148h-105zM1459 369q0 21 -7 41t-19 35.5t-27.5 25.5t-32.5 10q-20 0 -41 -10.5t-38.5 -27t-29 -36.5t-11.5 -38t9 -39t22.5 -39t29.5 -30.5t31 -12.5q18 0 38 12.5t37 30.5t28 39t11 39zM1336 973l-109 79l74 95l106 -78zM1461 788l-111 82l-76 -94l-110 78l81 100
l107 -78l74 92l110 -77z" />
    <glyph glyph-name="uniFB6C" unicode="&#x6a4;" horiz-adv-x="588" arabic-form="initial" 
d="M501 348q0 -94 -23.5 -160t-69 -108t-112.5 -61t-154 -19h-172v148h156q54 0 101 10.5t82 26t55 33t22 30.5q1 12 1 21v15q0 7 -0.5 13.5t-0.5 15.5q-38 -23 -71.5 -31t-77.5 -8q-50 0 -80.5 17t-48 41t-23.5 51t-6 47q0 19 6 51t17.5 68.5t29 74t40.5 68t51.5 49.5
t62.5 19q42 0 81 -37t68.5 -96.5t47.5 -133t18 -145.5zM359 440q-4 22 -12 51.5t-20.5 56t-28.5 44.5t-35 18q-16 0 -31.5 -15t-27.5 -35.5t-19.5 -42t-7.5 -34.5q0 -14 3 -27.5t11.5 -24.5t24 -18t41.5 -7q41 0 62.5 9.5t39.5 24.5zM251 1022l-109 79l74 95l106 -78z
M376 837l-111 82l-76 -94l-110 78l81 100l107 -78l74 92l110 -77z" />
    <glyph glyph-name="uniFB6D" unicode="&#x6a4;" horiz-adv-x="577" arabic-form="medial" 
d="M556 2q-31 0 -68.5 5t-76 16t-75.5 28t-65 41q-137 -90 -260 -90h-41v148h58q15 0 32.5 2t35.5 6.5t35 11.5t30 16q-37 38 -49.5 85.5t-12.5 90.5q0 33 12 66t32 63t45.5 56t53 45t55 30t50.5 11q31 0 62 -18.5t55.5 -50.5t39.5 -74.5t15 -90.5q0 -38 -11 -72t-28.5 -63
t-38.5 -51.5t-41 -36.5q35 -15 77.5 -20.5t82.5 -5.5h47v-148h-51zM411 358q0 22 -8 44t-20.5 40t-28 29.5t-29.5 11.5q-18 0 -39 -10.5t-39.5 -27t-30.5 -36.5t-12 -38t9 -39t22.5 -40t29.5 -31.5t31 -12.5q12 0 31.5 11.5t38 28.5t32 36t13.5 34zM283 932l-109 79l74 95
l106 -78zM408 747l-111 82l-76 -94l-110 78l81 100l107 -78l74 92l110 -77z" />
    <glyph glyph-name="uniFB6E" unicode="&#x6a6;" horiz-adv-x="1604" arabic-form="isolated" 
d="M1517 375q0 -81 -25.5 -139.5t-72.5 -100.5t-114.5 -70.5t-152.5 -48.5q-57 -14 -120.5 -24.5t-130 -18.5t-134.5 -12t-135 -4q-131 0 -230.5 13.5t-166.5 47.5t-101 91.5t-34 144.5q0 23 4.5 48.5t13 50.5t19.5 48t24 41l94 -28q-18 -31 -28.5 -67t-10.5 -64
q0 -36 12 -68t49 -55.5t105 -37t180 -13.5h103q186 0 318.5 19t218.5 44.5t130 52.5t54 43q11 19 12.5 36t1.5 36q-38 -23 -70.5 -31t-76.5 -8q-50 0 -81 17t-48 41t-23 51t-6 47q0 19 6 51t17.5 69t28.5 74.5t40 68t52 50t63 19.5q27 0 54 -17t51 -46.5t44 -70t34.5 -86.5
t23 -95.5t8.5 -98.5zM1375 469q-4 21 -12 50t-20.5 55.5t-29 44.5t-36.5 18q-16 0 -31 -14.5t-27 -35t-19 -41.5t-7 -34q0 -15 3 -29t11.5 -25t24 -17.5t41.5 -6.5q40 0 62 9t40 26zM1309 1085l105 -73l-78 -100l-110 82l-76 -94l-109 75l76 98l-105 73l80 103l107 -80
l74 92l112 -78zM1300 1088l-103 77l-72 -90l103 -77z" />
    <glyph glyph-name="uniFB6F" unicode="&#x6a6;" horiz-adv-x="1690" arabic-form="final" 
d="M1615 0q-35 0 -74.5 5.5t-79 17t-75.5 29.5t-64 42q-61 -32 -142.5 -57.5t-173 -43t-188 -27t-186.5 -9.5q-131 0 -230.5 13.5t-166.5 47.5t-101 91.5t-34 144.5q0 23 4.5 48.5t13 50.5t19.5 48t24 41l94 -28q-18 -31 -28.5 -67t-10.5 -64q0 -36 12 -68t49 -55.5t105 -37
t180 -13.5h103q193 0 331 19t214 56q-21 18 -33.5 39.5t-18.5 44.5t-8 47t-2 45q0 33 12 66t32 63t45.5 56t53 45t55 30t50.5 11q31 0 62 -19t55.5 -52t39.5 -77.5t15 -95.5q0 -29 -10.5 -62t-28 -64t-39.5 -56t-45 -37q19 -9 40.5 -13.5t43.5 -5.5q17 -2 34 -2q5 0 11 1
h146v-148h-105zM1459 369q0 21 -7 41t-19 35.5t-27.5 25.5t-32.5 10q-20 0 -41 -10.5t-38.5 -27t-29 -36.5t-11.5 -38t9 -39t22.5 -39t29.5 -30.5t31 -12.5q18 0 38 12.5t37 30.5t28 39t11 39zM1430 963l105 -73l-78 -100l-110 82l-76 -94l-109 75l76 98l-105 73l80 103
l107 -80l74 92l112 -78zM1421 966l-103 77l-72 -90l103 -77z" />
    <glyph glyph-name="uniFB70" unicode="&#x6a6;" horiz-adv-x="588" arabic-form="initial" 
d="M501 348q0 -94 -23.5 -160t-69 -108t-112.5 -61t-154 -19h-172v148h156q54 0 101 10.5t82 26t55 33t22 30.5q1 12 1 21v15q0 7 -0.5 13.5t-0.5 15.5q-38 -23 -71.5 -31t-77.5 -8q-50 0 -80.5 17t-48 41t-23.5 51t-6 47q0 19 6 51t17.5 68.5t29 74t40.5 68t51.5 49.5
t62.5 19q42 0 81 -37t68.5 -96.5t47.5 -133t18 -145.5zM359 440q-4 22 -12 51.5t-20.5 56t-28.5 44.5t-35 18q-16 0 -31.5 -15t-27.5 -35.5t-19.5 -42t-7.5 -34.5q0 -14 3 -27.5t11.5 -24.5t24 -18t41.5 -7q41 0 62.5 9.5t39.5 24.5zM345 1010l105 -73l-78 -100l-110 82
l-76 -94l-109 75l76 98l-105 73l80 103l107 -80l74 92l112 -78zM336 1013l-103 77l-72 -90l103 -77z" />
    </font>
</defs>
</svg>
